На всех торрентах на трекере установлена скидка на скачивание в размере 100 процентов(а).
 Возможность скачивания торрента НЕ зависит от ограничений при низком ратио, низком аплоаде, требуемом ратио или требуемом аплоаде.


Начать новую тему Ответить на тему
Статистика раздачи
Размер: 5.77 ГБ | Добавлен: 31 дек 2012, 15:39 | Скачали: 189
Сидеров: 35  [0 байт/сек]    Личеров: 1  [0 байт/сек]
Пред. тема | След. тема 

Автор
Сообщение

СообщениеДобавлено: 31 дек 2012, 15:39 

Информация о фильме
Название: Интуиция
Оригинальное название: Serendipity
Год выхода: 2001
Жанр: мелодрама, комедия
Режиссер: Питер Челсом
В ролях: Джон Кьюсак, Кейт Бекинсейл, Джереми Пивен, Молли Шеннон, Майкл Джуарино мл., Юджин Леви, Кристал Бок, Стефен Брюс, Дэвид Спэрроу, Гари Гербрандт

О фильме:
В один суматошный зимний день, посреди нью-йоркской толпы Джонатан встретил Сару. Два незнакомых человека в объятом предновогодней лихорадкой городе обнаруживают, что их неодолимо тянет друг к другу.
И они решают проверить судьбу: он пишет свой телефон на банкноте, она — в книге. Купюру разменивают, а книгу сдают букинисту. Джонатан и Сара уверены, что скоро увидятся вновь. Но коварная судьба распорядилась по-своему.




Страна: США
Продолжительность: 01:30:58
Перевод: Профессиональный (полное дублирование)
Профессиональный (многоголосый закадровый)

Файл
Кодек: x264
Качество: BDRip (источник: US BDRemux)
Видео: 1920x1080 (16:9), 23.976 fps, 7992 kbps
Аудио #1: AC-3, 6 ch, 448 kbps (Дублированный)
Аудио #2: AC-3, 6 ch, 640 kbps (Многоголосый закадровый, Карусель)
Субтитры: Русские, английские

Скриншоты

Общее
Уникальный идентификатор : 192889732012177728774356074444530679042 (0x911D3609A5BE866FAE26045F7C307D02)
Полное имя : E:Serendipity.2001.BDRip.1080p.Rus.mkv
Формат : Matroska
Версия формата : Version 2
Размер файла : 5,77 Гбайт
Продолжительность : 1 ч. 30 м.
Общий поток : 9077 Кбит/сек
Название фильма : Интуиция (Serendipity) 2001
Дата кодирования : UTC 2012-12-31 08:23:19
Программа кодирования : mkvmerge v5.8.0 ('No Sleep / Pillow') built on Sep 2 2012 15:37:04
Библиотека кодирования : libebml v1.2.3 + libmatroska v1.3.0

Видео
Идентификатор : 1
Формат : AVC
Формат/Информация : Advanced Video Codec
Профиль формата : High@L4.1
Параметр CABAC формата : Да
Параметр ReFrames формата : 4 кадра
Идентификатор кодека : V_MPEG4/ISO/AVC
Продолжительность : 1 ч. 30 м.
Битрейт : 7992 Кбит/сек
Ширина : 1920 пикселей
Высота : 1080 пикселей
Соотношение сторон : 16:9
Режим частоты кадров : Постоянный
Частота кадров : 23,976 кадра/сек
Цветовое пространство : YUV
Субдискретизация насыщенности : 4:2:0
Битовая глубина : 8 бит
Тип развёртки : Прогрессивная
Бит/(Пиксели*Кадры) : 0.161
Размер потока : 4,96 Гбайт (86%)
Библиотека кодирования : x264 core 128 r2216M 198a7ea
Настройки программы : cabac=1 / ref=4 / deblock=1:0:0 / analyse=0x3:0x133 / me=umh / subme=10 / psy=1 / psy_rd=1.00:0.00 / mixed_ref=1 / me_range=32 / chroma_me=1 / trellis=2 / 8x8dct=1 / cqm=0 / deadzone=21,11 / fast_pskip=0 / chroma_qp_offset=-2 / threads=4 / lookahead_threads=1 / sliced_threads=0 / nr=0 / decimate=0 / interlaced=0 / bluray_compat=0 / constrained_intra=0 / bframes=9 / b_pyramid=2 / b_adapt=2 / b_bias=0 / direct=3 / weightb=1 / open_gop=0 / weightp=2 / keyint=240 / keyint_min=23 / scenecut=40 / intra_refresh=0 / rc_lookahead=60 / rc=2pass / mbtree=1 / bitrate=7992 / ratetol=1.0 / qcomp=0.60 / qpmin=10 / qpmax=69 / qpstep=4 / cplxblur=20.0 / qblur=0.5 / ip_ratio=1.40 / aq=1:1.00
Язык : English
Default : Да
Forced : Нет

Аудио #1
Идентификатор : 2
Формат : AC-3
Формат/Информация : Audio Coding 3
Расширение режима : CM (complete main)
Параметр Endianness формата : Big
Идентификатор кодека : A_AC3
Продолжительность : 1 ч. 30 м.
Вид битрейта : Постоянный
Битрейт : 448 Кбит/сек
Каналы : 6 каналов
Расположение каналов : Front: L C R, Side: L R, LFE
Частота : 48,0 КГц
Битовая глубина : 16 бит
Метод сжатия : С потерями
Размер потока : 291 Мбайт (5%)
Заголовок : Dub, AC3 5.1, 448 kbps
Язык : Russian
Default : Да
Forced : Нет

Аудио #2
Идентификатор : 3
Формат : AC-3
Формат/Информация : Audio Coding 3
Расширение режима : CM (complete main)
Параметр Endianness формата : Big
Идентификатор кодека : A_AC3
Продолжительность : 1 ч. 30 м.
Вид битрейта : Постоянный
Битрейт : 640 Кбит/сек
Каналы : 6 каналов
Расположение каналов : Front: L C R, Side: L R, LFE
Частота : 48,0 КГц
Битовая глубина : 16 бит
Метод сжатия : С потерями
Задержка видео : 27 мс.
Размер потока : 416 Мбайт (7%)
Заголовок : MVO (Karusel), AC3 5.1, 640 kbps
Язык : Russian
Default : Нет
Forced : Нет

Текст #1
Идентификатор : 4
Формат : UTF-8
Идентификатор кодека : S_TEXT/UTF8
Идентификатор кодека/Информация : UTF-8 Plain Text
Заголовок : Licence
Язык : Russian
Default : Нет
Forced : Нет

Текст #2
Идентификатор : 5
Формат : UTF-8
Идентификатор кодека : S_TEXT/UTF8
Идентификатор кодека/Информация : UTF-8 Plain Text
Заголовок : with songs
Язык : Russian
Default : Нет
Forced : Нет

Текст #3
Идентификатор : 6
Формат : UTF-8
Идентификатор кодека : S_TEXT/UTF8
Идентификатор кодека/Информация : UTF-8 Plain Text
Язык : English
Default : Нет
Forced : Нет

Текст #4
Идентификатор : 7
Формат : UTF-8
Идентификатор кодека : S_TEXT/UTF8
Идентификатор кодека/Информация : UTF-8 Plain Text
Заголовок : With Songs
Язык : English
Default : Нет
Forced : Нет

Текст #5
Идентификатор : 8
Формат : UTF-8
Идентификатор кодека : S_TEXT/UTF8
Идентификатор кодека/Информация : UTF-8 Plain Text
Заголовок : SDH
Язык : English
Default : Нет
Forced : Нет

Меню
00:00:00.000 : en:1. Opening Credits: "A Fortunate Accident"
00:08:37.350 : en: 2. Astrological Freckles
00:12:00.762 : en: 3. Forwarding Fate
00:17:52.655 : en: 4. A Toast to Soulmates
00:22:34.687 : en: 5. Magical Elements
00:26:37.221 : en: 6. Searching for Sara
00:32:18.186 : en: 7. "Mr. Good-Enough-for-Right-Now"
00:36:08.958 : en: 8. Good Salesmanship
00:39:24.904 : en: 9. "One Last Fling"
00:42:46.272 : en:10. Tracking Down Destiny
00:49:38.100 : en:11. Signs and Clues
00:59:31.026 : en:12. The Groom's Gift
01:07:54.570 : en:13. "Everything Happens for a Reason"
01:11:50.181 : en:14. "Is It Over?"
01:16:14.278 : en:15. "An Exquisite, Sublime Plan"
01:25:38.425 : en:16. End Credits
x264 [info]: frame I:868 Avg QP:19.60 size:177209
x264 [info]: frame P:25298 Avg QP:21.75 size: 80576
x264 [info]: frame B:104683 Avg QP:23.16 size: 31104
загрузка...
Правила, инструкции, FAQ!!!
Торрент  Добавлен [31 дек 2012, 15:39] Скачать торрент
Скачать торрент
[ Размер 15.03 КБ / Просмотров 18 ]

Статус
Проверен 
 
Размер  5.77 ГБ
Приватный: Нет (DHT включён)
.torrent скачан  189
Как залить торрент? | Как скачать Torrent? | Как смотреть и слушать онлайн?  


     Отправить личное сообщение
   
Страница 1 из 1
Показать сообщения за:  Поле сортировки  
Начать новую тему Ответить на тему

   Похожие торренты   Автор   Ответы   Просмотры   Последнее сообщение 
В этой теме нет новых непрочитанных сообщений. Скачать торрент Интуиция / Serendipity (Питер Челсом / Peter Chelsom) [2001, мелодрама, комедия, BDRip] Dub

в форуме Драмы, Мелодрамы, Размер: 744.25 МБ, Здоровье: 100%

Anonymous

0
57|19

31
1

24 апр 2014, 14:08

Anonymous Перейти к последнему сообщению

В этой теме нет новых непрочитанных сообщений. Скачать торрент Интуиция / Serendipity (Питер Челсом / Peter Chelsom) [2001, США, Мелодрама, Комедия, BDRip] Dub

в форуме Драмы, Мелодрамы, Размер: 2.26 ГБ, Здоровье: 100%

Anonymous

0
12|4

27
0

29 апр 2014, 13:58

Anonymous Перейти к последнему сообщению

В этой теме нет новых непрочитанных сообщений. Скачать торрент Али / Ali (2001) BDRip 1080p

в форуме 720p | 1080p, Размер: 15.76 ГБ, Здоровье: 100%

Anonymous

0
9|0

24
10

20 фев 2014, 22:22

Anonymous Перейти к последнему сообщению

В этой теме нет новых непрочитанных сообщений. Скачать торрент Проверен Любовь зла / Shallow Hal (2001) BDRip 1080p

в форуме 720p | 1080p, Размер: 7.74 ГБ, Здоровье: 65%

Гость

0
21|32

29
20

14 окт 2016, 20:10

Гость Перейти к последнему сообщению

В этой теме нет новых непрочитанных сообщений. Скачать торрент Проверен Энигма / Enigma (2001) BDRip 1080p | D, P

в форуме 720p | 1080p, Размер: 10.75 ГБ, Здоровье: 100%

Гость

0
102|28

201
107

29 июл 2015, 23:25

Гость Перейти к последнему сообщению



Сейчас этот форум просматривают: нет зарегистрированных пользователей и гости: 4


Вы не можете начинать темы
Вы не можете отвечать на сообщения
Вы не можете редактировать свои сообщения
Вы не можете удалять свои сообщения
Вы не можете добавлять вложения

Перейти:  

!ВНИМАНИЕ!
 Ресурс не предоставляет электронные версии произведений, а занимается лишь коллекционированием и каталогизацией ссылок, присылаемых и публикуемых на форуме нашими читателями. Если вы являетесь правообладателем какого-либо представленного материала и не желаете чтобы ссылка на него находилась в нашем каталоге, свяжитесь с нами и мы незамедлительно удалим её. Файлы для обмена на трекере предоставлены пользователями сайта, и администрация не несёт ответственности за их содержание. Просьба не заливать файлы, защищенные авторскими правами, а также файлы нелегального содержания!