На всех торрентах на трекере установлена скидка на скачивание в размере 100 процентов(а).
 Возможность скачивания торрента НЕ зависит от ограничений при низком ратио, низком аплоаде, требуемом ратио или требуемом аплоаде.


Начать новую тему Ответить на тему
Статистика раздачи
Размер: 6.88 ГБ | Добавлен: 20 мар 2014, 08:13 | Скачали: 6
Сидеров: 1  [0 байт/сек]    Личеров: 18  [0 байт/сек]
Пред. тема | След. тема 

Автор
Сообщение

СообщениеДобавлено: 20 мар 2014, 08:13 

Название: Хорошие вибрации
Оригинальное название: Good Vibrations
Год выхода: 2012
Жанр: драма, биография, музыка
Режиссер: Лиза Баррос Д’Са, Глен Лейберн

В ролях: Лиам Каннингэм, Джоди Уиттакер, Дилан Моран, Дэвид Уилмот, Эндрю Симпсон, Карл Джонсон, Марк Райдер, Ричард Дормер, Киллиан Скотт, Ниал Райт

О фильме:
Жил в Белфасте в 70х годах такой себе Терри Хули, только он был особенный, настоящий бунтарь и любитель музыки. И тут ему приходит идея открыть музыкальный магазинчик "Good Vibrations". Только он оказался в самом центре конфликта в Северной Ирландии, но Терри это не сколько не смущала, пока его одногодки воевали в этом хаосе, Терри слушал музыку. И вскоре стал лидером одной группы, чтобы вернуть его родному городу жизнь...



Выпущено: Великобритания, Ирландия
Продолжительность: 01:42:45
Озвучивание: Авторское (одноголосое) [Михаил Яроцкий]


Формат: MKV
Качество: BDRip 1080p [GECKOS]
Видео: 8364 kb/s, 1920x816
Аудио: Russian: AC3, 448 kb/s (6 ch) / English: DTS, 768 kb/s (6 ch)
Субтитры: Russian [forced], English
Дополнительно: Сохранены оригинальные чаптеры как на Blu-ray

Скачать: Сэмпл

Релиз группы:



Общее
Good.Vibrations.2012.Blu.Ray.1080p.CINEMANIA.mkv
Формат : Matroska
Версия формата : Version 4 / Version 2
Размер файла : 6,88 Гбайт
Продолжительность : 1 ч. 42 м.
Общий поток : 9582 Кбит/сек
Название фильма : Release Group CINEMANIA
Дата кодирования : UTC 2014-03-19 22:15:34
Программа кодирования : mkvmerge v6.8.0 ('Theme for Great Cities') 64bit built on Mar 2 2014 21:34:26
Библиотека кодирования : libebml v1.3.0 + libmatroska v1.4.1

Видео
Идентификатор : 1
Формат : AVC
Формат/Информация : Advanced Video Codec
Профиль формата : High@L4.1
Параметр CABAC формата : Да
Параметр ReFrames формата : 5 кадров
Идентификатор кодека : V_MPEG4/ISO/AVC
Продолжительность : 1 ч. 42 м.
Битрейт : 8364 Кбит/сек
Ширина : 1920 пикселей
Высота : 816 пикселей
Соотношение сторон : 2,35:1
Режим частоты кадров : Постоянный
Частота кадров : 23,976 кадра/сек
Цветовое пространство : YUV
Субдискретизация насыщенности : 4:2:0
Битовая глубина : 8 бит
Тип развёртки : Прогрессивная
Бит/(Пиксели*Кадры) : 0.223
Размер потока : 5,87 Гбайт (85%)
Заголовок : Release Group CINEMANIA
Библиотека кодирования : x264 core 135 r2345 f0c1c53
Настройки программы : cabac=1 / ref=5 / deblock=1:0:0 / analyse=0x3:0x133 / me=umh / subme=7 / psy=1 / psy_rd=1.00:0.00 / mixed_ref=1 / me_range=16 / chroma_me=1 / trellis=1 / 8x8dct=1 / cqm=0 / deadzone=21,11 / fast_pskip=0 / chroma_qp_offset=-2 / threads=12 / lookahead_threads=2 / sliced_threads=0 / nr=0 / decimate=1 / interlaced=0 / bluray_compat=0 / constrained_intra=0 / bframes=3 / b_pyramid=2 / b_adapt=2 / b_bias=0 / direct=3 / weightb=1 / open_gop=0 / weightp=2 / keyint=250 / keyint_min=23 / scenecut=40 / intra_refresh=0 / rc_lookahead=50 / rc=2pass / mbtree=1 / bitrate=8364 / ratetol=1.0 / qcomp=0.60 / qpmin=0 / qpmax=69 / qpstep=4 / cplxblur=20.0 / qblur=0.5 / ip_ratio=1.40 / aq=1:1.00
Язык : English
Default : Да
Forced : Нет

Аудио #1
Идентификатор : 2
Формат : AC-3
Формат/Информация : Audio Coding 3
Расширение режима : CM (complete main)
Параметр Endianness формата : Big
Идентификатор кодека : A_AC3
Продолжительность : 1 ч. 42 м.
Вид битрейта : Постоянный
Битрейт : 448 Кбит/сек
Каналы : 6 каналов
Расположение каналов : Front: L C R, Side: L R, LFE
Частота : 48,0 КГц
Битовая глубина : 16 бит
Метод сжатия : С потерями
Размер потока : 329 Мбайт (5%)
Заголовок : Михаил Яроцкий
Язык : Russian
Default : Да
Forced : Да

Аудио #2
Идентификатор : 3
Формат : DTS
Формат/Информация : Digital Theater Systems
Режим : 16
Параметр Endianness формата : Big
Идентификатор кодека : A_DTS
Продолжительность : 1 ч. 42 м.
Вид битрейта : Постоянный
Битрейт : 768 Кбит/сек
Каналы : 6 каналов
Расположение каналов : Front: L C R, Side: L R, LFE
Частота : 48,0 КГц
Битовая глубина : 24 бит
Метод сжатия : С потерями
Размер потока : 564 Мбайт (8%)
Язык : English
Default : Нет
Forced : Нет

Текст #1
Идентификатор : 4
Формат : UTF-8
Идентификатор кодека : S_TEXT/UTF8
Идентификатор кодека/Информация : UTF-8 Plain Text
Заголовок : forced
Язык : Russian
Default : Да
Forced : Да

Текст #2
Идентификатор : 5
Формат : UTF-8
Идентификатор кодека : S_TEXT/UTF8
Идентификатор кодека/Информация : UTF-8 Plain Text
Язык : English
Default : Нет
Forced : Нет

Меню
00:00:00.000 : en:00:00:00.000
00:07:51.137 : en:00:07:51.137
00:15:35.643 : en:00:15:35.643
00:23:43.339 : en:00:23:43.339
00:31:56.248 : en:00:31:56.248
00:40:38.519 : en:00:40:38.519
00:49:13.492 : en:00:49:13.492
00:55:27.449 : en:00:55:27.449
01:04:55.892 : en:01:04:55.892
01:14:10.154 : en:01:14:10.154
01:20:39.835 : en:01:20:39.835
01:26:30.143 : en:01:26:30.143
загрузка...
Правила, инструкции, FAQ!!!
Торрент  Добавлен [20 мар 2014, 08:13] Скачать торрент
Скачать торрент
[ Размер 34.96 КБ / Просмотров 7 ]

Статус  
 
Размер  6.88 ГБ
Приватный: Нет (DHT включён)
.torrent скачан  6
Как залить торрент? | Как скачать Torrent? | Как смотреть и слушать онлайн?  


     Отправить личное сообщение
   
Страница 1 из 1
Показать сообщения за:  Поле сортировки  
Начать новую тему Ответить на тему

   Похожие торренты   Автор   Ответы   Просмотры   Последнее сообщение 
В этой теме нет новых непрочитанных сообщений. Скачать торрент Хорошие вибрации / Good Vibrations (2012) BDRip 720p | A

в форуме 720p | 1080p, Размер: 4.69 ГБ, Здоровье: 100%

Anonymous

0
2|0

29
27

20 мар 2014, 08:09

Anonymous Перейти к последнему сообщению

В этой теме нет новых непрочитанных сообщений. Скачать торрент Проверен Очень хорошие девочки / Very Good Girls (2013) WEB-DL 720p | P

в форуме 720p | 1080p, Размер: 3.03 ГБ, Здоровье: 100%

Anonymous

0
71|3

29
1353

01 сен 2014, 13:36

Anonymous Перейти к последнему сообщению

В этой теме нет новых непрочитанных сообщений. Скачать торрент Проверен Очень хорошие девочки / Very Good Girls (2013) WEB-DLRip | P

в форуме Драмы, Мелодрамы, Размер: 1.37 ГБ, Здоровье: 100%

Anonymous

0
212|17

43
3994

01 сен 2014, 09:34

Anonymous Перейти к последнему сообщению

В этой теме нет новых непрочитанных сообщений. Скачать торрент Проверен (Pop,Disco) Desireless - More love & good vibrations - 2009, FLAC (image+.cue), lossless

в форуме Зарубежная музыка, Размер: 684.13 МБ, Здоровье: 0%

Anonymous

0
0|0

0
0

15 авг 2016, 18:15

Anonymous Перейти к последнему сообщению

В этой теме нет новых непрочитанных сообщений. Скачать торрент Проверен Хорошие люди / Good People (2014) HDRip | Чистый звук

в форуме Боевики, Размер: 1.41 ГБ, Здоровье: 100%

Гость

0
200|11

47
3009

16 дек 2014, 21:26

Гость Перейти к последнему сообщению



Сейчас этот форум просматривают: нет зарегистрированных пользователей и гости: 1


Вы не можете начинать темы
Вы не можете отвечать на сообщения
Вы не можете редактировать свои сообщения
Вы не можете удалять свои сообщения
Вы не можете добавлять вложения

Перейти:  

!ВНИМАНИЕ!
 Ресурс не предоставляет электронные версии произведений, а занимается лишь коллекционированием и каталогизацией ссылок, присылаемых и публикуемых на форуме нашими читателями. Если вы являетесь правообладателем какого-либо представленного материала и не желаете чтобы ссылка на него находилась в нашем каталоге, свяжитесь с нами и мы незамедлительно удалим её. Файлы для обмена на трекере предоставлены пользователями сайта, и администрация не несёт ответственности за их содержание. Просьба не заливать файлы, защищенные авторскими правами, а также файлы нелегального содержания!