На всех торрентах на трекере установлена скидка на скачивание в размере 100 процентов(а).
 Возможность скачивания торрента НЕ зависит от ограничений при низком ратио, низком аплоаде, требуемом ратио или требуемом аплоаде.


Начать новую тему Ответить на тему
Статистика раздачи
Размер: 2.9 ГБ | Добавлен: 30 дек 2012, 18:40 | Скачали: 0
Сидеров: 0  [0 байт/сек]    Личеров: 0  [0 байт/сек]
Пред. тема | След. тема 

Автор
Сообщение

СообщениеДобавлено: 30 дек 2012, 18:40 

Название: Начало
Оригинальное название: Inception
Год выхода: 2010
Жанр: фантастика, боевик, триллер, драма, детектив
Режиссер: Кристофер Нолан
В ролях: Леонардо ДиКаприо, Джозеф Гордон-Левитт, Эллен Пейдж, Том Харди, Кен Ватанабе, Дилип Рао, Киллиан Мёрфи, Том Беренджер, Марион Котийяр, Пит Постлетуэйт, Майкл Кейн

О фильме:
Кобб - талантливый вор, лучший из лучших в опасном искусстве извлечения: он крадет ценные секреты из глубин подсознания во время сна, когда человеческий разум наиболее уязвим. Редкие способности Кобба сделали его ценным игроком в привычном к предательству мире промышленного шпионажа, но они же превратили его в извечного беглеца и лишили всего, что он когда-либо любил.

И вот у Кобба появляется шанс исправить ошибки. Его последнее дело может вернуть все назад, но для этого ему нужно совершить невозможное - инициацию. Вместо идеальной кражи Кобб и его команда спецов должны будут провернуть обратное. Теперь их задача - не украсть идею, а внедрить ее. Если у них получится, это и станет идеальным преступлением.

Но никакое планирование или мастерство не могут подготовить команду к встрече с опасным противником, который, кажется, предугадывает каждый их ход. Врагом, увидеть которого мог бы лишь Кобб.

«Твой разум - место преступления.»







Выпущено: США, Великобритания / Warner Bros. Pictures
Продолжительность: 02:28:07
Перевод: Профессиональный (полное дублирование) Blu-Ray CEE + Оригинальная звуковая дорожка
Субтитры: Русские (форсированные, полные) Blu-Ray CEE, Русские (форсированные, полные, полные SDH) Voronine, английские (полные, полные SDH) (*.srt, отключаемые)



Формат: MKV
Качество: BDRip-AVC (источник: ZNG505 / Blu-Ray Remux / 1080p)
Видео: 1036x432 (2,40:1), 23.976 fps, x264@L4.1, 2pass, ~1908 kbps avg, 0.18 bit/pixel
Аудио #1: 48 kHz, AC3, 3/2 (L,C,R,l,r) + LFE ch, ~448.00 kbps avg (RUS, DUB) Blu-Ray CEE
Аудио #2: 48 kHz, AC3, 3/2 (L,C,R,l,r) + LFE ch, ~448.00 kbps avg (ENG)





Полное имя : Nachalo.2010.DUAL.BDRip-AVC.x264.AC3.-HQCLUB.mkv
Формат : Matroska
Версия формата : Version 4 / Version 2
Размер файла : 2,90 Гбайт
Продолжительность : 2 ч. 28 м.
Общий поток : 2807 Кбит/сек
Дата кодирования : UTC 2010-02-22 21:41:31
Программа кодирования : mkvmerge v5.9.0 ('On The Loose') built on Dec 9 2012 15:37:01
Библиотека кодирования : libebml v1.3.0 + libmatroska v1.4.0

Видео
Идентификатор : 1
Формат : AVC
Формат/Информация : Advanced Video Codec
Профиль формата : High@L4.1
Параметр CABAC формата : Да
Параметр ReFrames формата : 9 кадров
Идентификатор кодека : V_MPEG4/ISO/AVC
Продолжительность : 2 ч. 28 м.
Битрейт : 1908 Кбит/сек
Ширина : 1036 пикселей
Высота : 432 пикселя
Соотношение сторон : 2,40:1
Режим частоты кадров : Постоянный
Частота кадров : 23,976 кадра/сек
Цветовое пространство : YUV
Субдискретизация насыщенности : 4:2:0
Битовая глубина : 8 бит
Тип развёртки : Прогрессивная
Бит/(Пиксели*Кадры) : 0.178
Размер потока : 1,92 Гбайт (66%)
Заголовок : Начало / Inception (2010) BDRip-AVC by MOSFET | HQCLUB.NET
Библиотека кодирования : x264 core 129 r2230 1cffe9f
Настройки программы : cabac=1 / ref=9 / deblock=1:-2:-1 / analyse=0x3:0x113 / me=esa / subme=10 / psy=1 / psy_rd=1.00:0.00 / mixed_ref=1 / me_range=64 / chroma_me=1 / trellis=2 / 8x8dct=1 / cqm=0 / deadzone=21,11 / fast_pskip=0 / chroma_qp_offset=-2 / threads=12 / lookahead_threads=2 / sliced_threads=0 / nr=0 / decimate=1 / interlaced=0 / bluray_compat=0 / constrained_intra=0 / bframes=14 / b_pyramid=2 / b_adapt=2 / b_bias=0 / direct=3 / weightb=1 / open_gop=0 / weightp=2 / keyint=240 / keyint_min=23 / scenecut=40 / intra_refresh=0 / rc_lookahead=50 / rc=2pass / mbtree=1 / bitrate=1908 / ratetol=1.0 / qcomp=0.70 / qpmin=0 / qpmax=69 / qpstep=4 / cplxblur=20.0 / qblur=0.5 / vbv_maxrate=50000 / vbv_bufsize=62500 / nal_hrd=none / ip_ratio=1.40 / aq=1:0.80
Язык : English
Default : Да
Forced : Нет

Аудио #1
Идентификатор : 2
Формат : AC-3
Формат/Информация : Audio Coding 3
Расширение режима : CM (complete main)
Параметр Endianness формата : Big
Идентификатор кодека : A_AC3
Продолжительность : 2 ч. 28 м.
Вид битрейта : Постоянный
Битрейт : 448 Кбит/сек
Каналы : 6 каналов
Расположение каналов : Front: L C R, Side: L R, LFE
Частота : 48,0 КГц
Битовая глубина : 16 бит
Метод сжатия : С потерями
Размер потока : 475 Мбайт (16%)
Заголовок : Профессиональный (полное дублирование)
Язык : Russian
Default : Да
Forced : Нет

Аудио #2
Идентификатор : 3
Формат : AC-3
Формат/Информация : Audio Coding 3
Расширение режима : CM (complete main)
Параметр Endianness формата : Big
Идентификатор кодека : A_AC3
Продолжительность : 2 ч. 28 м.
Вид битрейта : Постоянный
Битрейт : 448 Кбит/сек
Каналы : 6 каналов
Расположение каналов : Front: L C R, Side: L R, LFE
Частота : 48,0 КГц
Битовая глубина : 16 бит
Метод сжатия : С потерями
Размер потока : 475 Мбайт (16%)
Заголовок : Оригинальная звуковая дорожка
Язык : English
Default : Нет
Forced : Нет

Текст #1
Идентификатор : 4
Формат : UTF-8
Идентификатор кодека : S_TEXT/UTF8
Идентификатор кодека/Информация : UTF-8 Plain Text
Заголовок : Русские (форсированные) |BD|
Язык : Russian
Default : Да
Forced : Нет

Текст #2
Идентификатор : 5
Формат : UTF-8
Идентификатор кодека : S_TEXT/UTF8
Идентификатор кодека/Информация : UTF-8 Plain Text
Заголовок : Русские (полные) |BD|
Язык : Russian
Default : Нет
Forced : Нет

Текст #3
Идентификатор : 6
Формат : UTF-8
Идентификатор кодека : S_TEXT/UTF8
Идентификатор кодека/Информация : UTF-8 Plain Text
Заголовок : Русские (форсированные) |Voronine|
Язык : Russian
Default : Нет
Forced : Нет

Текст #4
Идентификатор : 7
Формат : UTF-8
Идентификатор кодека : S_TEXT/UTF8
Идентификатор кодека/Информация : UTF-8 Plain Text
Заголовок : Русские (полные) |Voronine|
Язык : Russian
Default : Нет
Forced : Нет

Текст #5
Идентификатор : 8
Формат : UTF-8
Идентификатор кодека : S_TEXT/UTF8
Идентификатор кодека/Информация : UTF-8 Plain Text
Заголовок : Русские (полные, SDH) |Voronine|
Язык : Russian
Default : Нет
Forced : Нет

Текст #6
Идентификатор : 9
Формат : UTF-8
Идентификатор кодека : S_TEXT/UTF8
Идентификатор кодека/Информация : UTF-8 Plain Text
Заголовок : Английские (полные)
Язык : English
Default : Нет
Forced : Нет

Текст #7
Идентификатор : 10
Формат : UTF-8
Идентификатор кодека : S_TEXT/UTF8
Идентификатор кодека/Информация : UTF-8 Plain Text
Заголовок : Английские (полные, SDH)
Язык : English
Default : Нет
Forced : Нет

Меню
00:00:00.000 : en:Scene 1
00:11:41.743 : en:Scene 2
00:21:37.338 : en:Scene 3
00:31:20.337 : en:Scene 4
00:41:22.230 : en:Scene 5
00:51:13.737 : en:Scene 6
01:01:21.553 : en:Scene 7
01:10:29.684 : en:Scene 8
01:22:15.597 : en:Scene 9
01:31:52.590 : en:Scene 10
01:40:38.532 : en:Scene 11
01:51:22.175 : en:Scene 12
02:00:54.414 : en:Scene 13
02:10:09.051 : en:Scene 14
02:20:55.447 : en:Scene 15

---[NoImage] x264 [info]: frame I:1873 Avg QP:14.23 size: 60891
---[NoImage] x264 [info]: frame P:45333 Avg QP:17.94 size: 19731
---[NoImage] x264 [info]: frame B:165890 Avg QP:20.38 size: 6698

---[NoImage] x264 [info]: consecutive B-frames: 2.3% 3.2% 7.4% 21.0% 14.6% 33.1% 5.6% 4.7% 2.0% 2.0% 0.8% 1.7% 0.5% 0.5% 0.7%

---[NoImage] x264 [info]: ref P L0: 49.3% 10.0% 17.6% 6.9% 5.2% 3.8% 3.2% 1.9% 1.8% 0.3% 0.0%
---[NoImage] x264 [info]: ref B L0: 73.7% 12.6% 6.1% 2.9% 2.0% 1.6% 0.9% 0.3%
---[NoImage] x264 [info]: ref B L1: 91.5% 8.5%
загрузка...
Правила, инструкции, FAQ!!!
Торрент  Добавлен [30 дек 2012, 18:40] Скачать торрент
Скачать торрент
[ Размер 15.31 КБ / Просмотров 12 ]

Статус
Проверен 
 
Размер  2.9 ГБ
Приватный: Нет (DHT включён)
.torrent скачан  0
Как залить торрент? | Как скачать Torrent? | Как смотреть и слушать онлайн?  


     Отправить личное сообщение
   
Страница 1 из 1
Показать сообщения за:  Поле сортировки  
Начать новую тему Ответить на тему

   Похожие торренты   Автор   Ответы   Просмотры   Последнее сообщение 
В этой теме нет новых непрочитанных сообщений. Скачать торрент Начало / Inception (2010) BDRip

в форуме Фантастика, Фэнтези, Размер: 1.46 ГБ, Здоровье: 0%

Anonymous

0
0|0

37
1

09 янв 2014, 00:15

Anonymous Перейти к последнему сообщению

В этой теме нет новых непрочитанных сообщений. Скачать торрент Проверен Molchanoff (Вячеслав Молчанов) - Inception (Начало) (2013) [MP3|320 кб/с]<Heavy Metal>

в форуме Русский Рок, Размер: 49.76 МБ, Здоровье: 0%

Anonymous

0
0|0

35
1

15 июл 2014, 08:39

Anonymous Перейти к последнему сообщению

В этой теме нет новых непрочитанных сообщений. Скачать торрент Проверен Космическая одиссея 2010 / 2010: The Year We Make Contact (1984) BDRip от HQCLUB

в форуме Фантастика, Фэнтези, Размер: 2.18 ГБ, Здоровье: 100%

Гость

0
12|6

57
215

07 дек 2014, 17:47

Гость Перейти к последнему сообщению

В этой теме нет новых непрочитанных сообщений. Скачать торрент Секретная служба Санты / Приготовление и начало / Prep & Landing (2009) BDRip 720p | Лицензия

в форуме Зарубежные мультфильмы (HD Video), Размер: 690.33 МБ, Здоровье: 100%

Anonymous

0
7|1

45
0

29 дек 2013, 10:20

Anonymous Перейти к последнему сообщению

В этой теме нет новых непрочитанных сообщений. Скачать торрент Проверен Драконы: Гонки бесстрашных. Начало / Dragons: Dawn of the Dragon Racers (2014) BDRip | D | Лицензия

в форуме Зарубежные мультфильмы, Размер: 509.97 МБ, Здоровье: 100%

Anonymous

0
601|70

129
2128

24 окт 2014, 21:47

Anonymous Перейти к последнему сообщению



Сейчас этот форум просматривают: нет зарегистрированных пользователей и гости: 2


Вы не можете начинать темы
Вы не можете отвечать на сообщения
Вы не можете редактировать свои сообщения
Вы не можете удалять свои сообщения
Вы не можете добавлять вложения

Перейти:  

!ВНИМАНИЕ!
 Ресурс не предоставляет электронные версии произведений, а занимается лишь коллекционированием и каталогизацией ссылок, присылаемых и публикуемых на форуме нашими читателями. Если вы являетесь правообладателем какого-либо представленного материала и не желаете чтобы ссылка на него находилась в нашем каталоге, свяжитесь с нами и мы незамедлительно удалим её. Файлы для обмена на трекере предоставлены пользователями сайта, и администрация не несёт ответственности за их содержание. Просьба не заливать файлы, защищенные авторскими правами, а также файлы нелегального содержания!