На всех торрентах на трекере установлена скидка на скачивание в размере 100 процентов(а).
 Возможность скачивания торрента НЕ зависит от ограничений при низком ратио, низком аплоаде, требуемом ратио или требуемом аплоаде.


Начать новую тему Ответить на тему
Статистика раздачи
Размер: 7.76 ГБ | Добавлен: 18 мар 2014, 22:34 | Скачали: 102
Сидеров: 11  [0 байт/сек]    Личеров: 1  [0 байт/сек]
Пред. тема | След. тема 

Автор
Сообщение

СообщениеДобавлено: 18 мар 2014, 22:34 

Название: Особо тяжкие преступления
Оригинальное название: High Crimes
Год выхода: 2002
Жанр: триллер, драма, криминал, детектив
Режиссер: Карл Франклин

В ролях: Эшли Джадд, Морган Фримен, Джеймс Кавизел, Аманда Питт, Брюс Дэвисон, Адам Скотт

О фильме:
Преуспевающая в своей деятельности адвокат и счастливая супруга, героиня Эшли Джадд, потрясена известием о том, что ее муж является секретным агентом, работающим под прикрытием.
Мало того, он еще и обвинен в совершении государственного военного преступления. Поскольку она готовится защищать своего мужа в военном суде, то ей на помощь приходит бывший военный поверенный, который играет по своим правилам…



Выпущено: США
Продолжительность: 01:55:13
Перевод: Дублированный + Оригинал


Кодек: x264
Качество: BDRip 1080p
Видео: 1920x816, 8364 Kbps, 23.976 fps
Аудио #1: AC-3, 6 ch, 640 kbps (Rus)
Аудио #2: AC-3, 6 ch, 640 kbps (Eng)
Субтитры: русские, английские

Общее
Уникальный идентификатор : 235495797915653035302645941910709944418 (0xB12AD7451C9DE54B95AEF4DFE23F4062)
Полное имя : Особо тяжкие преступления.2002.BDRip.1080p.Rus.Eng.mkv
Формат : Matroska
Версия формата : Version 2
Размер файла : 7,76 Гбайт
Продолжительность : 1 ч. 55 м.
Общий поток : 9644 Кбит/сек
Название фильма : Особо тяжкие преступления.2002
Дата кодирования : UTC 2014-03-18 17:25:54
Программа кодирования : mkvmerge v5.8.0 ('No Sleep / Pillow') built on Sep 2 2012 15:37:04
Библиотека кодирования : libebml v1.2.3 + libmatroska v1.3.0

Видео
Идентификатор : 1
Формат : AVC
Формат/Информация : Advanced Video Codec
Профиль формата : High@L4.1
Параметр CABAC формата : Да
Параметр ReFrames формата : 5 кадров
Идентификатор кодека : V_MPEG4/ISO/AVC
Продолжительность : 1 ч. 55 м.
Битрейт : 8364 Кбит/сек
Ширина : 1920 пикселей
Высота : 816 пикселей
Соотношение сторон : 2,35:1
Режим частоты кадров : Постоянный
Частота кадров : 23,976 кадра/сек
Цветовое пространство : YUV
Субдискретизация насыщенности : 4:2:0
Битовая глубина : 8 бит
Тип развёртки : Прогрессивная
Бит/(Пиксели*Кадры) : 0.223
Размер потока : 6,58 Гбайт (85%)
Заголовок : Rip by Boriy
Библиотека кодирования : x264 core 142 r2389 956c8d8
Настройки программы : cabac=1 / ref=5 / deblock=1:-3:-3 / analyse=0x3:0x113 / me=umh / subme=11 / psy=1 / psy_rd=1.00:0.00 / mixed_ref=1 / me_range=32 / chroma_me=1 / trellis=2 / 8x8dct=1 / cqm=0 / deadzone=21,11 / fast_pskip=0 / chroma_qp_offset=-2 / threads=12 / lookahead_threads=1 / sliced_threads=0 / nr=0 / decimate=0 / interlaced=0 / bluray_compat=0 / constrained_intra=0 / bframes=6 / b_pyramid=2 / b_adapt=2 / b_bias=0 / direct=3 / weightb=1 / open_gop=0 / weightp=2 / keyint=240 / keyint_min=23 / scenecut=40 / intra_refresh=0 / rc=2pass / mbtree=0 / bitrate=8364 / ratetol=1.0 / qcomp=0.60 / qpmin=0 / qpmax=69 / qpstep=4 / cplxblur=20.0 / qblur=0.5 / ip_ratio=1.40 / pb_ratio=1.30 / aq=1:0.80
Язык : English
Default : Да
Forced : Нет

Аудио #1
Идентификатор : 2
Формат : AC-3
Формат/Информация : Audio Coding 3
Расширение режима : CM (complete main)
Параметр Endianness формата : Big
Идентификатор кодека : A_AC3
Продолжительность : 1 ч. 55 м.
Вид битрейта : Постоянный
Битрейт : 640 Кбит/сек
Каналы : 6 каналов
Расположение каналов : Front: L C R, Side: L R, LFE
Частота : 48,0 КГц
Битовая глубина : 16 бит
Метод сжатия : С потерями
Размер потока : 527 Мбайт (7%)
Заголовок : Дубляж
Язык : Russian
Default : Да
Forced : Нет

Аудио #2
Идентификатор : 3
Формат : AC-3
Формат/Информация : Audio Coding 3
Расширение режима : CM (complete main)
Параметр Endianness формата : Big
Идентификатор кодека : A_AC3
Продолжительность : 1 ч. 55 м.
Вид битрейта : Постоянный
Битрейт : 640 Кбит/сек
Каналы : 6 каналов
Расположение каналов : Front: L C R, Side: L R, LFE
Частота : 48,0 КГц
Битовая глубина : 16 бит
Метод сжатия : С потерями
Размер потока : 527 Мбайт (7%)
Заголовок : Оригинал
Язык : English
Default : Нет
Forced : Нет

Текст #1
Идентификатор : 4
Формат : UTF-8
Идентификатор кодека : S_TEXT/UTF8
Идентификатор кодека/Информация : UTF-8 Plain Text
Язык : Russian
Default : Нет
Forced : Нет

Текст #2
Идентификатор : 5
Формат : UTF-8
Идентификатор кодека : S_TEXT/UTF8
Идентификатор кодека/Информация : UTF-8 Plain Text
Язык : English
Default : Нет
Forced : Нет

Меню
00:00:00.000 : :Chapter 1
00:04:09.040 : :Chapter 2
00:07:42.211 : :Chapter 3
00:09:34.115 : :Chapter 4
00:12:13.774 : :Chapter 5
00:13:51.247 : :Chapter 6
00:16:03.379 : :Chapter 7
00:18:57.636 : :Chapter 8
00:21:13.772 : :Chapter 9
00:25:38.328 : :Chapter 10
00:29:09.289 : :Chapter 11
00:35:08.272 : :Chapter 12
00:37:00.218 : :Chapter 13
00:38:57.126 : :Chapter 14
00:40:18.874 : :Chapter 15
00:41:42.041 : :Chapter 16
00:42:57.658 : :Chapter 17
00:47:54.204 : :Chapter 18
00:51:12.194 : :Chapter 19
00:55:27.907 : :Chapter 20
00:57:53.928 : :Chapter 21
01:01:33.439 : :Chapter 22
01:05:05.359 : :Chapter 23
01:09:16.068 : :Chapter 24
01:10:13.375 : :Chapter 25
01:12:00.316 : :Chapter 26
01:17:10.917 : :Chapter 27
01:19:04.406 : :Chapter 28
01:22:04.169 : :Chapter 29
01:24:27.020 : :Chapter 30
01:27:13.728 : :Chapter 31
01:32:13.694 : :Chapter 32
01:35:37.481 : :Chapter 33
01:40:06.417 : :Chapter 34
01:47:16.471 : :Chapter 35
01:50:23.700 : :Chapter 36
загрузка...
Правила, инструкции, FAQ!!!
Торрент  Добавлен [18 мар 2014, 22:34] Скачать торрент
Скачать торрент
[ Размер 20.06 КБ / Просмотров 10 ]

Статус  
 
Размер  7.76 ГБ
Приватный: Нет (DHT включён)
.torrent скачан  102
Как залить торрент? | Как скачать Torrent? | Как смотреть и слушать онлайн?  


     Отправить личное сообщение
   
Страница 1 из 1
Показать сообщения за:  Поле сортировки  
Начать новую тему Ответить на тему

   Похожие торренты   Автор   Ответы   Просмотры   Последнее сообщение 
В этой теме нет новых непрочитанных сообщений. Скачать торрент Особо тяжкие преступления / High Crimes (Карл Франклин / Carl Franklin) [2002, США, Детектив, триллер, HDRip-AVC] DUB

в форуме 720p | 1080p, Размер: 1.45 ГБ, Здоровье: 0%

Anonymous

0
0|0

28
0

10 фев 2014, 13:07

Anonymous Перейти к последнему сообщению

В этой теме нет новых непрочитанных сообщений. Скачать торрент Преступления прошлого / Crimes of the Past (Гаррет Беннетт / Garrett Bennett) [2009 г., Драма, DVDRip]

в форуме Драмы, Мелодрамы, Размер: 1.37 ГБ, Здоровье: 100%

Anonymous

0
1|0

53
0

17 май 2014, 20:07

Anonymous Перейти к последнему сообщению

В этой теме нет новых непрочитанных сообщений. Скачать торрент Проверен Garbage - One Mile High...Live [2013, Alternative Rock, Electronic, BDRip 1080p]

в форуме Концерты (HD-Video), Размер: 6.56 ГБ, Здоровье: 100%

Anonymous

0
1|0

1
0

23 окт 2016, 13:41

Anonymous Перейти к последнему сообщению

В этой теме нет новых непрочитанных сообщений. Скачать торрент Проверен Особо тяжкое преступление / Felony (2013) BDRip-AVC

в форуме Триллеры, Размер: 2.16 ГБ, Здоровье: 100%

Гость

0
297|93

87
615

05 апр 2015, 14:48

Гость Перейти к последнему сообщению

В этой теме нет новых непрочитанных сообщений. Скачать торрент Проверен Noel Gallagher's High Flying Birds - International Magic Live At The O2 [2012, Indie Rock, Brit Pop, Rock, BDRip 1080p]

в форуме Концерты (HD-Video), Размер: 6.55 ГБ, Здоровье: 0%

Anonymous

0
0|0

2
0

23 окт 2016, 11:23

Anonymous Перейти к последнему сообщению



Сейчас этот форум просматривают: нет зарегистрированных пользователей и гости: 3


Вы не можете начинать темы
Вы не можете отвечать на сообщения
Вы не можете редактировать свои сообщения
Вы не можете удалять свои сообщения
Вы не можете добавлять вложения

Перейти:  

!ВНИМАНИЕ!
 Ресурс не предоставляет электронные версии произведений, а занимается лишь коллекционированием и каталогизацией ссылок, присылаемых и публикуемых на форуме нашими читателями. Если вы являетесь правообладателем какого-либо представленного материала и не желаете чтобы ссылка на него находилась в нашем каталоге, свяжитесь с нами и мы незамедлительно удалим её. Файлы для обмена на трекере предоставлены пользователями сайта, и администрация не несёт ответственности за их содержание. Просьба не заливать файлы, защищенные авторскими правами, а также файлы нелегального содержания!