На всех торрентах на трекере установлена скидка на скачивание в размере 100 процентов(а).
 Возможность скачивания торрента НЕ зависит от ограничений при низком ратио, низком аплоаде, требуемом ратио или требуемом аплоаде.


Начать новую тему Ответить на тему
Статистика раздачи
Размер: 10.22 ГБ | Добавлен: 18 мар 2014, 22:27 | Скачали: 4
Сидеров: 1  [0 байт/сек]    Личеров: 0  [0 байт/сек]
Пред. тема | След. тема 

Автор
Сообщение

СообщениеДобавлено: 18 мар 2014, 22:27 

Название: Добро пожаловать в Донгмакгол
Оригинальное название: Welkkeom tu Dongmakgol
Год выпуска: 2005
Жанр: Драма, комедия, военный
Режиссер: Пак Кван Хён

В ролях: Чон Чжэ Ён, Син Ха Гюн, Кан Хэ Чжон, Лим Ха Рён, Рю Док Хван, Сё Чжэ Кён, Стив Тэшлер

Описание: 1950 год, разгар Корейской войны. Отдаленная деревня Донмакголь живет тихо и спокойно, а ее жители даже не подозревают о том, что происходит вокруг. Волею случая в деревню заходят северокорейские солдаты, а потом и южнокорейские. А впридачу ко всему, с неба падает сбитый американский летчик. Несмотря на развернувшиеся военные события, горная деревушка стала оазисом мира и взаимопомощи для оказавшихся там ещё вчерашних врагов.



Страна: Южная Корея
Студия: Film It Suda
Продолжительность: 02:12:52
Перевод: Авторский одноголосый


Качество: BDRip 720p
Видео: MPEG-4 AVC, 8000 Кбит/с, 1280x550, 23.976 кадр/с
Аудио #1: Русский (DTS, 6 ch, 1509 Кбит/с) / Авторский одноголосый (Сербин)
Аудио #2: Корейский (DTS, 6 ch, 1509 Кбит/с)
Субтитры: Русские, английские

Семпл



За исходник спасибо: HDClub
За постер спасибо: Media-Art-Club
Общее
Уникальный идентификатор : 238220211059755670379424078155352943007 (0xB3378B356AA83BC1B8320D11619CA99F)
Полное имя : D:Mои раздачиDobro.pozhalovatj.v.Dongmakgol.2005.BDRip.720p-MediaClub.mkv
Формат : Matroska
Версия формата : Version 4 / Version 2
Размер файла : 10,2 Гбайт
Продолжительность : 2 ч. 12 м.
Общий поток : 11,0 Мбит/сек
Название фильма : -=MediaClub-kaspr=-
Дата кодирования : UTC 2014-03-18 16:22:11
Программа кодирования : mkvmerge v6.8.0 ('Theme for Great Cities') 64bit built on Mar 2 2014 21:34:26
Библиотека кодирования : libebml v1.3.0 + libmatroska v1.4.1

Видео
Идентификатор : 1
Формат : AVC
Формат/Информация : Advanced Video Codec
Профиль формата : High@L4.1
Параметр CABAC формата : Да
Параметр ReFrames формата : 9 кадров
Идентификатор кодека : V_MPEG4/ISO/AVC
Продолжительность : 2 ч. 12 м.
Битрейт : 8000 Кбит/сек
Ширина : 1280 пикселей
Высота : 550 пикселей
Соотношение сторон : 2,35:1
Режим частоты кадров : Постоянный
Частота кадров : 23,976 кадра/сек
Цветовое пространство : YUV
Субдискретизация насыщенности : 4:2:0
Битовая глубина : 8 бит
Тип развёртки : Прогрессивная
Бит/(Пиксели*Кадры) : 0.474
Размер потока : 7,22 Гбайт (71%)
Заголовок : -=MediaClub-kaspr=-
Библиотека кодирования : x264 core 142 r2389+41 02cb608 tMod [8-bit@4:2:0 X86_64]
Настройки программы : cabac=1 / ref=9 / deblock=1:-3:-3 / analyse=0x3:0x113 / me=umh / subme=11 / psy=1 / fade_compensate=0.00 / psy_rd=1.00:0.20 / mixed_ref=1 / me_range=32 / chroma_me=1 / trellis=2 / 8x8dct=1 / cqm=0 / deadzone=21,11 / fast_pskip=0 / chroma_qp_offset=-3 / threads=12 / lookahead_threads=3 / sliced_threads=0 / nr=0 / decimate=0 / interlaced=0 / bluray_compat=0 / constrained_intra=0 / fgo=0 / bframes=12 / b_pyramid=2 / b_adapt=2 / b_bias=0 / direct=3 / weightb=1 / open_gop=0 / weightp=2 / keyint=240 / keyint_min=23 / scenecut=40 / intra_refresh=0 / rc=2pass / mbtree=0 / bitrate=8000 / ratetol=1.0 / qcomp=0.60 / qpmin=0:0:0 / qpmax=69:69:69 / qpstep=4 / cplxblur=20.0 / qblur=0.5 / ip_ratio=1.40 / pb_ratio=1.30 / aq=2:0.80 / aq-sensitivity=10.00 / aq-factor=1.00:1.00:1.00 / aq2=0 / aq3=0
Default : Да
Forced : Да

Аудио #1
Идентификатор : 2
Формат : DTS
Формат/Информация : Digital Theater Systems
Режим : 16
Параметр Endianness формата : Big
Идентификатор кодека : A_DTS
Продолжительность : 2 ч. 12 м.
Вид битрейта : Постоянный
Битрейт : 1509 Кбит/сек
Каналы : 6 каналов
Расположение каналов : Front: L C R, Side: L R, LFE
Частота : 48,0 КГц
Битовая глубина : 16 бит
Метод сжатия : С потерями
Размер потока : 1,40 Гбайт (14%)
Заголовок : AVO (Serbin)
Язык : Russian
Default : Да
Forced : Да

Аудио #2
Идентификатор : 3
Формат : DTS
Формат/Информация : Digital Theater Systems
Режим : 16
Параметр Endianness формата : Big
Идентификатор кодека : A_DTS
Продолжительность : 2 ч. 12 м.
Вид битрейта : Постоянный
Битрейт : 1509 Кбит/сек
Каналы : 6 каналов
Расположение каналов : Front: L C R, Side: L R, LFE
Частота : 48,0 КГц
Битовая глубина : 16 бит
Метод сжатия : С потерями
Размер потока : 1,40 Гбайт (14%)
Язык : Korean
Default : Нет
Forced : Нет

Текст #1
Идентификатор : 4
Формат : UTF-8
Идентификатор кодека : S_TEXT/UTF8
Идентификатор кодека/Информация : UTF-8 Plain Text
Язык : Russian
Default : Нет
Forced : Нет

Текст #2
Идентификатор : 5
Формат : UTF-8
Идентификатор кодека : S_TEXT/UTF8
Идентификатор кодека/Информация : UTF-8 Plain Text
Язык : English
Default : Нет
Forced : Нет

Меню
00:00:00.000 : en:Chapter 01
00:01:44.646 : en:Chapter 02
00:03:22.619 : en:Chapter 03
00:06:26.385 : en:Chapter 04
00:08:24.378 : en:Chapter 05
00:14:49.763 : en:Chapter 06
00:16:09.843 : en:Chapter 07
00:19:39.136 : en:Chapter 08
00:21:31.123 : en:Chapter 09
00:22:38.315 : en:Chapter 10
00:23:53.348 : en:Chapter 11
00:29:17.046 : en:Chapter 12
00:33:17.870 : en:Chapter 13
00:36:06.164 : en:Chapter 14
00:39:31.869 : en:Chapter 15
00:43:24.518 : en:Chapter 16
00:44:44.306 : en:Chapter 17
00:47:26.260 : en:Chapter 18
00:48:32.826 : en:Chapter 19
00:50:53.467 : en:Chapter 20
00:52:18.802 : en:Chapter 21
00:54:08.161 : en:Chapter 22
01:01:11.209 : en:Chapter 23
01:05:04.233 : en:Chapter 24
01:08:03.871 : en:Chapter 25
01:09:13.691 : en:Chapter 26
01:12:34.892 : en:Chapter 27
01:14:13.657 : en:Chapter 28
01:15:01.830 : en:Chapter 29
01:18:16.316 : en:Chapter 30
01:24:01.369 : en:Chapter 31
01:31:35.114 : en:Chapter 32
01:37:06.570 : en:Chapter 33
01:42:57.838 : en:Chapter 34
01:50:00.051 : en:Chapter 35
01:59:16.149 : en:Chapter 36
02:08:03.634 : en:Chapter 37


Релиз: |
загрузка...
Правила, инструкции, FAQ!!!
Торрент  Добавлен [18 мар 2014, 22:27] Скачать торрент
Скачать торрент
[ Размер 26.31 КБ / Просмотров 11 ]

Статус  
 
Размер  10.22 ГБ
Приватный: Нет (DHT включён)
.torrent скачан  4
Как залить торрент? | Как скачать Torrent? | Как смотреть и слушать онлайн?  


     Отправить личное сообщение
   
Страница 1 из 1
Показать сообщения за:  Поле сортировки  
Начать новую тему Ответить на тему

   Похожие торренты   Автор   Ответы   Просмотры   Последнее сообщение 
В этой теме нет новых непрочитанных сообщений. Скачать торрент Проверен Добро пожаловать в Донгмакгол / Welkkeom tu Dongmakgol (2005) HDRip [H.264]

в форуме Военные, Размер: 2.05 ГБ, Здоровье: 100%

Anonymous

0
1|0

187
1

21 май 2014, 17:25

Anonymous Перейти к последнему сообщению

В этой теме нет новых непрочитанных сообщений. Скачать торрент Добро пожаловать в джунгли / Welcome to the Jungle (2013) BDRip 720p | L2

в форуме 720p | 1080p, Размер: 4.67 ГБ, Здоровье: 100%

Anonymous

0
10|0

364
8

08 фев 2014, 22:30

Anonymous Перейти к последнему сообщению

В этой теме нет новых непрочитанных сообщений. Скачать торрент Проверен Добро пожаловать в Лэйквью / Lakeview Terrace (2008) BDRip 720p | P | Лицензия

в форуме 720p | 1080p, Размер: 4.23 ГБ, Здоровье: 100%

Гость

0
36|7

70
26

04 авг 2016, 20:36

Гость Перейти к последнему сообщению

В этой теме нет новых непрочитанных сообщений. Скачать торрент Проверен Добро пожаловать, или Посторонним вход воспрещён (Элем Климов) [1964, СССР, комедия, семейный, BDRip 720p]

в форуме Наше кино (HD Video), Размер: 4.77 ГБ, Здоровье: 100%

Anonymous

0
57|19

90
0

12 апр 2015, 10:56

Anonymous Перейти к последнему сообщению

В этой теме нет новых непрочитанных сообщений. Добро пожаловать в рай / Vice (2015) WEB-DL [H.264/720p-LQ]

в форуме Новинки кино, Размер: 3.16 ГБ, Здоровье: 100%

Anonymous

0
46|2

3615
5

20 янв 2015, 23:45

Anonymous Перейти к последнему сообщению



Сейчас этот форум просматривают: нет зарегистрированных пользователей и гости: 1


Вы не можете начинать темы
Вы не можете отвечать на сообщения
Вы не можете редактировать свои сообщения
Вы не можете удалять свои сообщения
Вы не можете добавлять вложения

Перейти:  

!ВНИМАНИЕ!
 Ресурс не предоставляет электронные версии произведений, а занимается лишь коллекционированием и каталогизацией ссылок, присылаемых и публикуемых на форуме нашими читателями. Если вы являетесь правообладателем какого-либо представленного материала и не желаете чтобы ссылка на него находилась в нашем каталоге, свяжитесь с нами и мы незамедлительно удалим её. Файлы для обмена на трекере предоставлены пользователями сайта, и администрация не несёт ответственности за их содержание. Просьба не заливать файлы, защищенные авторскими правами, а также файлы нелегального содержания!