На всех торрентах на трекере установлена скидка на скачивание в размере 100 процентов(а).
 Возможность скачивания торрента НЕ зависит от ограничений при низком ратио, низком аплоаде, требуемом ратио или требуемом аплоаде.


Начать новую тему Ответить на тему
Статистика раздачи
Размер: 3.38 ГБ | Добавлен: 18 мар 2014, 19:41 | Скачали: 6
Сидеров: 2  [0 байт/сек]    Личеров: 0  [0 байт/сек]
Пред. тема | След. тема 

Автор
Сообщение

СообщениеДобавлено: 18 мар 2014, 19:41 

Название: Двадцати-пяти-борье
Оригинальное название: The Do-Deca-Pentathlon
Год выхода: 2012
Жанр: комедия
Режиссер: Джей Дюпласс, Марк Дюпласс

В ролях: Марк Келли, Стив Зиссис, Дженнифер ЛаФлер, Брендан Робинсон, Ноэль Кристи Уэллс, Рики Диллард, Элтон ЛеБланк

О фильме:
Джереми и Марк – родные братья, мужчины средних лет, которые уже давно не разговаривают друг с другом. Причина многолетнего отчуждения кроется в мероприятии под названием «Двадцатипятиборье», которым они увлекались в юности. Это спортивное событие, в котором братья соревновались друг с другом в самых разных двадцати пяти спортивных дисциплинах, начиная от плавания в бассейне до игры в пинг-понг. Именно жаркие спортивные баталии в свое время и вызвали раскол среди героев.

Теперь эти двое воссоединились вновь, приехав к матери на выходные. Джереми - профессиональный игрок в покер, Марк – серьезный человек с женой и сыном. Первоначально Марк отвергает все попытки Джереми вновь вовлечь его в конфликт. Но не выдерживает. И вот уже братья вновь вспоминают спортивные соревнования своей юности. Кто же выиграет «Двадцатипятиборье» и навсегда заработает право называться самым лучшим братом?



Выпущено: США
Продолжительность: 01:16:21
Озвучивание: Профессиональное (многоголосое) [Первый Канал]


Формат: MKV
Качество: BDRip 720p [RUSTED]
Видео: 4632 kb/s, 1280x696
Аудио: Russian: AC3, 192 kb/s (2 ch) / English: DTS, 1510 kb/s (6 ch)
Субтитры: Russian [RockThis1, sERega_25], English
Дополнительно: Сохранены оригинальные чаптеры как на Blu-ray

Скачать: Сэмпл

Релиз группы:




Общее
The.Do-Deca-Pentathlon.2012.Blu.Ray.720p.CINEMANIA.mkv
Формат : Matroska
Версия формата : Version 4 / Version 2
Размер файла : 3,38 Гбайт
Продолжительность : 1 ч. 16 м.
Общий поток : 6334 Кбит/сек
Название фильма : Release Group CINEMANIA
Дата кодирования : UTC 2014-03-18 13:25:42
Программа кодирования : mkvmerge v6.8.0 ('Theme for Great Cities') 64bit built on Mar 2 2014 21:34:26
Библиотека кодирования : libebml v1.3.0 + libmatroska v1.4.1

Видео
Идентификатор : 1
Формат : AVC
Формат/Информация : Advanced Video Codec
Профиль формата : High@L4.1
Параметр CABAC формата : Да
Параметр ReFrames формата : 5 кадров
Идентификатор кодека : V_MPEG4/ISO/AVC
Продолжительность : 1 ч. 16 м.
Битрейт : 4632 Кбит/сек
Ширина : 1280 пикселей
Высота : 696 пикселей
Соотношение сторон : 1,85:1
Режим частоты кадров : Постоянный
Частота кадров : 23,976 кадра/сек
Цветовое пространство : YUV
Субдискретизация насыщенности : 4:2:0
Битовая глубина : 8 бит
Тип развёртки : Прогрессивная
Бит/(Пиксели*Кадры) : 0.217
Размер потока : 2,40 Гбайт (71%)
Заголовок : Release Group CINEMANIA
Библиотека кодирования : x264 core 125 r2208 d9d2288
Настройки программы : cabac=1 / ref=5 / deblock=1:0:0 / analyse=0x3:0x113 / me=umh / subme=8 / psy=1 / psy_rd=1.00:0.00 / mixed_ref=1 / me_range=16 / chroma_me=1 / trellis=1 / 8x8dct=1 / cqm=0 / deadzone=21,11 / fast_pskip=1 / chroma_qp_offset=-2 / threads=12 / lookahead_threads=2 / sliced_threads=0 / nr=0 / decimate=1 / interlaced=0 / bluray_compat=0 / constrained_intra=0 / bframes=3 / b_pyramid=2 / b_adapt=2 / b_bias=0 / direct=3 / weightb=1 / open_gop=0 / weightp=2 / keyint=240 / keyint_min=24 / scenecut=40 / intra_refresh=0 / rc_lookahead=50 / rc=2pass / mbtree=1 / bitrate=4632 / ratetol=1.0 / qcomp=0.60 / qpmin=0 / qpmax=69 / qpstep=4 / cplxblur=20.0 / qblur=0.5 / ip_ratio=1.40 / aq=1:1.00
Язык : English
Default : Да
Forced : Нет

Аудио #1
Идентификатор : 2
Формат : AC-3
Формат/Информация : Audio Coding 3
Расширение режима : CM (complete main)
Параметр Endianness формата : Big
Идентификатор кодека : A_AC3
Продолжительность : 1 ч. 16 м.
Вид битрейта : Постоянный
Битрейт : 192 Кбит/сек
Каналы : 2 канала
Расположение каналов : Front: L R
Частота : 48,0 КГц
Битовая глубина : 16 бит
Метод сжатия : С потерями
Размер потока : 105 Мбайт (3%)
Заголовок : 1канал
Язык : Russian
Default : Да
Forced : Да

Аудио #2
Идентификатор : 3
Формат : DTS
Формат/Информация : Digital Theater Systems
Режим : 16
Параметр Endianness формата : Big
Идентификатор кодека : A_DTS
Продолжительность : 1 ч. 16 м.
Вид битрейта : Постоянный
Битрейт : 1509 Кбит/сек
Каналы : 6 каналов
Расположение каналов : Front: L C R, Side: L R, LFE
Частота : 48,0 КГц
Битовая глубина : 24 бит
Метод сжатия : С потерями
Размер потока : 824 Мбайт (24%)
Язык : English
Default : Нет
Forced : Нет

Текст #1
Идентификатор : 4
Формат : UTF-8
Идентификатор кодека : S_TEXT/UTF8
Идентификатор кодека/Информация : UTF-8 Plain Text
Заголовок : RockThis1, sERega_25
Язык : Russian
Default : Нет
Forced : Нет

Текст #2
Идентификатор : 5
Формат : UTF-8
Идентификатор кодека : S_TEXT/UTF8
Идентификатор кодека/Информация : UTF-8 Plain Text
Язык : English
Default : Нет
Forced : Нет

Меню
00:00:00.000 : en:00:00:00.000
00:03:29.042 : en:00:03:29.042
00:04:59.299 : en:00:04:59.299
00:10:26.584 : en:00:10:26.584
00:15:42.525 : en:00:15:42.525
00:20:23.055 : en:00:20:23.055
00:25:19.226 : en:00:25:19.226
00:29:04.868 : en:00:29:04.868
00:33:34.220 : en:00:33:34.220
00:38:03.197 : en:00:38:03.197
00:41:57.306 : en:00:41:57.306
00:45:40.279 : en:00:45:40.279
00:48:22.191 : en:00:48:22.191
00:52:10.502 : en:00:52:10.502
00:58:05.315 : en:00:58:05.315
01:00:50.939 : en:01:00:50.939
01:01:54.919 : en:01:01:54.919
01:05:08.738 : en:01:05:08.738
01:11:15.938 : en:01:11:15.938
01:14:49.193 : en:01:14:49.193
загрузка...
Правила, инструкции, FAQ!!!
Торрент  Добавлен [18 мар 2014, 19:41] Скачать торрент
Скачать торрент
[ Размер 17.46 КБ / Просмотров 7 ]

Статус  
 
Размер  3.38 ГБ
Приватный: Нет (DHT включён)
.torrent скачан  6
Как залить торрент? | Как скачать Torrent? | Как смотреть и слушать онлайн?  


     Отправить личное сообщение
   
Страница 1 из 1
Показать сообщения за:  Поле сортировки  
Начать новую тему Ответить на тему

   Похожие торренты   Автор   Ответы   Просмотры   Последнее сообщение 
В этой теме нет новых непрочитанных сообщений. Скачать торрент Проверен Хоббит: Битва пяти воинств / The Hobbit: The Battle of the Five Armies (2014) BDRip-AVC | D, A | Лицензия

в форуме Фантастика, Фэнтези, Размер: 5.34 ГБ, Здоровье: 100%

Гость

0
348|51

171
57

10 май 2015, 18:08

Гость Перейти к последнему сообщению

В этой теме нет новых непрочитанных сообщений. Скачать торрент Проверен Хоббит: Битва пяти воинств / The Hobbit: The Battle of the Five Armies (2014) BDRip 1080p | Лицензия

в форуме 720p | 1080p, Размер: 13.08 ГБ, Здоровье: 44%

Гость

0
116|258

137
49

10 май 2015, 18:04

Гость Перейти к последнему сообщению

В этой теме нет новых непрочитанных сообщений. Скачать торрент Проверен Хоббит: Битва пяти воинств / The Hobbit: The Battle of the Five Armies (2014) BDRip 1080p | Extended Cut | iTunes

в форуме 720p | 1080p, Размер: 17.06 ГБ, Здоровье: 100%

Гость

0
84|38

411
282

15 ноя 2015, 23:58

Гость Перейти к последнему сообщению

В этой теме нет новых непрочитанных сообщений. Скачать торрент Проверен Rammstein: Videos 1995-2012 [2012, Industrial , BDRip (720p)]

в форуме Концерты (HD-Video), Размер: 21.24 ГБ, Здоровье: 100%

Гость

0
57|37

787
11

26 апр 2015, 22:42

Гость Перейти к последнему сообщению

В этой теме нет новых непрочитанных сообщений. Скачать торрент Проверен [iPad] 2012 / 2012 (Роланд Эммерих / Roland Emmerich) [2009, фантастика, боевик, приключения, BDRip, 720p]

в форуме Фильмы для iPod, iPhone, iPad, Размер: 4.31 ГБ, Здоровье: 100%

Гость

0
5|1

31
0

11 май 2015, 01:37

Гость Перейти к последнему сообщению



Сейчас этот форум просматривают: нет зарегистрированных пользователей и гости: 3


Вы не можете начинать темы
Вы не можете отвечать на сообщения
Вы не можете редактировать свои сообщения
Вы не можете удалять свои сообщения
Вы не можете добавлять вложения

Перейти:  

!ВНИМАНИЕ!
 Ресурс не предоставляет электронные версии произведений, а занимается лишь коллекционированием и каталогизацией ссылок, присылаемых и публикуемых на форуме нашими читателями. Если вы являетесь правообладателем какого-либо представленного материала и не желаете чтобы ссылка на него находилась в нашем каталоге, свяжитесь с нами и мы незамедлительно удалим её. Файлы для обмена на трекере предоставлены пользователями сайта, и администрация не несёт ответственности за их содержание. Просьба не заливать файлы, защищенные авторскими правами, а также файлы нелегального содержания!