На всех торрентах на трекере установлена скидка на скачивание в размере 100 процентов(а).
 Возможность скачивания торрента НЕ зависит от ограничений при низком ратио, низком аплоаде, требуемом ратио или требуемом аплоаде.


Начать новую тему Ответить на тему
Статистика раздачи
Размер: 6.18 ГБ | Добавлен: 18 мар 2014, 18:27 | Скачали: 70
Сидеров: 9  [0 байт/сек]    Личеров: 1  [0 байт/сек]
Пред. тема | След. тема 

Автор
Сообщение

СообщениеДобавлено: 18 мар 2014, 18:27 

Вкратце:
1455 год, Корея. В стране неспокойно, престол захвачен жестоким правителем Седжо Чосоном. Аристократ из знатной семьи, попавшей в опалу, Ким Нэ Кён путешествует по стране неприкаянным бродягой вместе со своим шурином Пён Хо и сыном Чжун Хёном. Он торгует всякой мелочью, перебиваясь с хлеба на воду, и иногда подрабатывает чтецом лиц (физиогномика). В один из таких приработков ему удается, благодаря удачному раскрытию убийства, попасть в милость королю Мун Чжону. Оказавшись в круговороте дворцовых интриг, Нэ Кён попадает, как между молотом и наковальней, между двумя враждующими силами - генералом, первым министром Ким Чжон Со и принцем Су Яном, жаждущим власти и короны.Он оказывается посреди схватки между свирепым "волком" и величественным"тигром" эпохи Чосон. Удастся ли благородному человеку сохранить ясную голову и суметь избежать гибели?


Название: Читающий лица
Оригинальное название: Gwansang / The Face Reader
Год выхода: 2013
Жанр: драма, история
Режиссер: Хан Чжэ Рим

В ролях: Кан Хо Сон, Ли Чон Чжэ, Хе Су Ким, Пэк Юн Шик





Выпущено: Южная Корея
Продолжительность: 02:19:50
Озвучивание: Любительское (одноголосое) [@PD]


Формат: MKV
Качество: BDRip 720p [CHD]
Видео: 4640 kb/s, 1280х544
Аудио: Russian: AC3, 192 kb/s (2 ch) / Korean: DTS, 1510 kb/s (6 ch)
Субтитры: Russian [kukushka92], English
Дополнительно: Сохранены оригинальные чаптеры как на Blu-Ray

Скачать: Сэмпл

Релиз группы:




Общее
The.Face.Reader.2013.Blu.Ray.720p.CINEMANIA.mkv
Формат : Matroska
Версия формата : Version 4 / Version 2
Размер файла : 6,18 Гбайт
Продолжительность : 2 ч. 19 м.
Общий поток : 6330 Кбит/сек
Название фильма : Release Group CINEMANIA
Дата кодирования : UTC 2014-03-18 10:39:17
Программа кодирования : mkvmerge v6.8.0 ('Theme for Great Cities') 64bit built on Mar 2 2014 21:34:26
Библиотека кодирования : libebml v1.3.0 + libmatroska v1.4.1

Видео
Идентификатор : 1
Формат : AVC
Формат/Информация : Advanced Video Codec
Профиль формата : High@L4.1
Параметр CABAC формата : Да
Параметр ReFrames формата : 11 кадров
Идентификатор кодека : V_MPEG4/ISO/AVC
Продолжительность : 2 ч. 19 м.
Битрейт : 4640 Кбит/сек
Ширина : 1280 пикселей
Высота : 544 пикселя
Соотношение сторон : 2,35:1
Режим частоты кадров : Постоянный
Частота кадров : 23,976 кадра/сек
Цветовое пространство : YUV
Субдискретизация насыщенности : 4:2:0
Битовая глубина : 8 бит
Тип развёртки : Прогрессивная
Бит/(Пиксели*Кадры) : 0.278
Размер потока : 4,40 Гбайт (71%)
Заголовок : Release Group CINEMANIA
Библиотека кодирования : x264 core 138 r2358 9e941d1
Настройки программы : cabac=1 / ref=11 / deblock=1:-3:-3 / analyse=0x3:0x113 / me=umh / subme=10 / psy=1 / psy_rd=1.10:0.10 / mixed_ref=1 / me_range=32 / chroma_me=1 / trellis=2 / 8x8dct=1 / cqm=0 / deadzone=21,11 / fast_pskip=0 / chroma_qp_offset=-2 / threads=12 / lookahead_threads=1 / sliced_threads=0 / nr=0 / decimate=1 / interlaced=0 / bluray_compat=0 / constrained_intra=0 / bframes=4 / b_pyramid=2 / b_adapt=2 / b_bias=0 / direct=3 / weightb=1 / open_gop=0 / weightp=2 / keyint=250 / keyint_min=23 / scenecut=40 / intra_refresh=0 / rc=2pass / mbtree=0 / bitrate=4640 / ratetol=1.0 / qcomp=0.70 / qpmin=0 / qpmax=69 / qpstep=4 / cplxblur=20.0 / qblur=0.5 / ip_ratio=1.40 / pb_ratio=1.30 / aq=2:0.90
Язык : Korean
Default : Да
Forced : Нет

Аудио #1
Идентификатор : 2
Формат : AC-3
Формат/Информация : Audio Coding 3
Расширение режима : CM (complete main)
Параметр Endianness формата : Big
Идентификатор кодека : A_AC3
Продолжительность : 2 ч. 19 м.
Вид битрейта : Постоянный
Битрейт : 192 Кбит/сек
Каналы : 2 канала
Расположение каналов : Front: L R
Частота : 48,0 КГц
Битовая глубина : 16 бит
Метод сжатия : С потерями
Размер потока : 192 Мбайт (3%)
Заголовок : @PD
Язык : Russian
Default : Да
Forced : Да

Аудио #2
Идентификатор : 3
Формат : DTS
Формат/Информация : Digital Theater Systems
Режим : 16
Параметр Endianness формата : Big
Идентификатор кодека : A_DTS
Продолжительность : 2 ч. 19 м.
Вид битрейта : Постоянный
Битрейт : 1509 Кбит/сек
Каналы : 6 каналов
Расположение каналов : Front: L C R, Side: L R, LFE
Частота : 48,0 КГц
Битовая глубина : 24 бит
Метод сжатия : С потерями
Размер потока : 1,47 Гбайт (24%)
Язык : Korean
Default : Нет
Forced : Нет

Текст #1
Идентификатор : 4
Формат : UTF-8
Идентификатор кодека : S_TEXT/UTF8
Идентификатор кодека/Информация : UTF-8 Plain Text
Заголовок : kukushka92
Язык : Russian
Default : Нет
Forced : Нет

Текст #2
Идентификатор : 5
Формат : UTF-8
Идентификатор кодека : S_TEXT/UTF8
Идентификатор кодека/Информация : UTF-8 Plain Text
Язык : English
Default : Нет
Forced : Нет

Меню
00:00:00.000 : ko:00:00:00.000
00:09:23.313 : ko:00:09:23.313
00:18:03.291 : ko:00:18:03.291
00:28:22.367 : ko:00:28:22.367
00:35:15.280 : ko:00:35:15.280
00:41:34.909 : ko:00:41:34.909
00:49:23.878 : ko:00:49:23.878
00:56:50.365 : ko:00:56:50.365
01:03:48.992 : ko:01:03:48.992
01:15:25.938 : ko:01:15:25.938
01:24:51.336 : ko:01:24:51.336
01:29:24.442 : ko:01:29:24.442
01:38:52.176 : ko:01:38:52.176
02:00:40.275 : ko:02:00:40.275
02:09:49.198 : ko:02:09:49.198
02:16:41.193 : ko:02:16:41.193
загрузка...
Правила, инструкции, FAQ!!!
Торрент  Добавлен [18 мар 2014, 18:27] Скачать торрент
Скачать торрент
[ Размер 31.48 КБ / Просмотров 10 ]

Статус  
 
Размер  6.18 ГБ
Приватный: Нет (DHT включён)
.torrent скачан  70
Как залить торрент? | Как скачать Torrent? | Как смотреть и слушать онлайн?  


     Отправить личное сообщение
   
Страница 1 из 1
Показать сообщения за:  Поле сортировки  
Начать новую тему Ответить на тему

   Похожие торренты   Автор   Ответы   Просмотры   Последнее сообщение 
В этой теме нет новых непрочитанных сообщений. Скачать торрент Проверен Без лица / Face/Off (1997) BDRip [720p]

в форуме 720p | 1080p, Размер: 13.5 ГБ, Здоровье: 100%

Anonymous

0
11|8

55
1

13 ноя 2014, 22:20

Anonymous Перейти к последнему сообщению

В этой теме нет новых непрочитанных сообщений. Скачать торрент Без лица / Face/Off (Джон Ву / John Woo) [1997 г., боевик, триллер, криминал, BDRip] Dub + MVO (СТС/ТНТ) + Subs (Rus, Eng)

в форуме Боевики, Размер: 2.56 ГБ, Здоровье: 100%

Anonymous

0
56|19

55
0

01 фев 2014, 19:08

Anonymous Перейти к последнему сообщению

В этой теме нет новых непрочитанных сообщений. Скачать торрент Чтец / The Reader (2008) BDRip |R5 Лицензия|

в форуме Драмы, Мелодрамы, Размер: 2.18 ГБ, Здоровье: 0%

Anonymous

0
0|0

32
1

08 янв 2014, 23:06

Anonymous Перейти к последнему сообщению

В этой теме нет новых непрочитанных сообщений. Скачать торрент Чтец / The Reader (2008) BDRip 1080р

в форуме 720p | 1080p, Размер: 5.52 ГБ, Здоровье: 0%

Anonymous

0
0|0

30
0

08 янв 2014, 23:13

Anonymous Перейти к последнему сообщению

В этой теме нет новых непрочитанных сообщений. Скачать торрент Проверен (Blues and Face) John Lee Hooker - Face to Face - 2003, APE (image+.cue), lossless

в форуме Blues (Texas, Chicago, Modern and Others), Размер: 461.73 МБ, Здоровье: 0%

Anonymous

0
0|0

2
0

16 окт 2016, 00:53

Anonymous Перейти к последнему сообщению



Сейчас этот форум просматривают: нет зарегистрированных пользователей и гости: 3


Вы не можете начинать темы
Вы не можете отвечать на сообщения
Вы не можете редактировать свои сообщения
Вы не можете удалять свои сообщения
Вы не можете добавлять вложения

Перейти:  

!ВНИМАНИЕ!
 Ресурс не предоставляет электронные версии произведений, а занимается лишь коллекционированием и каталогизацией ссылок, присылаемых и публикуемых на форуме нашими читателями. Если вы являетесь правообладателем какого-либо представленного материала и не желаете чтобы ссылка на него находилась в нашем каталоге, свяжитесь с нами и мы незамедлительно удалим её. Файлы для обмена на трекере предоставлены пользователями сайта, и администрация не несёт ответственности за их содержание. Просьба не заливать файлы, защищенные авторскими правами, а также файлы нелегального содержания!