На всех торрентах на трекере установлена скидка на скачивание в размере 100 процентов(а).
 Возможность скачивания торрента НЕ зависит от ограничений при низком ратио, низком аплоаде, требуемом ратио или требуемом аплоаде.


Начать новую тему Ответить на тему
Статистика раздачи
Размер: 7.74 ГБ | Добавлен: 17 мар 2014, 14:35 | Скачали: 331
Сидеров: 15  [0 байт/сек]    Личеров: 2  [0 байт/сек]
Пред. тема | След. тема 

Автор
Сообщение

СообщениеДобавлено: 17 мар 2014, 14:35 

Название: Неизвестный
Оригинальное название: Unknown
Год выпуска: 2011
Жанр: Триллер, драма, детектив
Выпущено: США, Германия, Канада, Франция, Япония, Великобритания
Режиссер: Жауме Коллет-Серра

В ролях: Лиам Нисон, Дайан Крюгер, Дженьюэри Джонс, Эйдан Куинн, Бруно Ганц, Фрэнк Ланджелла, Себастьян Кох, Оливье Шнайдер, Стипе Эрчег, Райнер Бок, Мидо Хамада, Клинг Дайер, Карл Марковиц, Аднан Марал, Торстен Михаэлис, Райнер Селлиен, Петра Хартунг, Майкл Бэрал, Сэнни Ван Хетерен, Херберт Ольшок, Карла Триппель, Петра Шмидт-Шаллер, Аннабель Манденг, Янина Флигер, Фриц Рот, Хейке Ханолд, Кида Рамадан

Перевод: Дублированный

Сюжет фильма
В этом фильме рассказывается о мужчине, который после пробуждения от комы обнаруживает, что его личность присвоена другим, и понимает, что никто, даже собственная жена, не верит ему. И тогда при помощи незнакомой молодой женщины-таксистки герой стремится доказать, кто он такой.



\
Качество: BDRip 1080p (исходник Blu-ray)
Видео: 1920x800, 8 800 Кбит/сек, 23.976 кадр/сек, AVC, x264, High@L4.1, 0.239 Бит/[Пиксели*Кадры], 2pass
Аудио 1: AC3 5.1 48 kHz 384 kbps - дублированный
Аудио 2: AC3 5.1 48 kHz 640 kbps - English

Рип с FRA (французского) издания

Чаптеры: есть
Субтитры: Russian (Full / Forced)
Продолжительность: 01:53:12
Автор рипа: Сообщество:


Format : Matroska
Format version : Version 2
File size : 7.74 GiB
Duration : 1h 53mn
Overall bit rate : 9 793 Kbps
Movie name : Neizvestnyj.(2011).BDRip.1080p.[denis100]
Encoded date : UTC 2014-03-17 10:07:13
Writing application : mkvmerge v5.8.0 ('No Sleep / Pillow') built on Sep 2 2012 15:37:04
Writing library : libebml v1.2.3 + libmatroska v1.3.0

Video
ID : 1
Format : AVC
Format/Info : Advanced Video Codec
Format profile : High@L4.1
Format settings, CABAC : Yes
Format settings, ReFrames : 5 frames
Codec ID : V_MPEG4/ISO/AVC
Duration : 1h 53mn
Bit rate : 8 800 Kbps
Width : 1 920 pixels
Height : 800 pixels
Display aspect ratio : 2.40:1
Frame rate mode : Constant
Frame rate : 23.976 fps
Color space : YUV
Chroma subsampling : 4:2:0
Bit depth : 8 bits
Scan type : Progressive
Bits/(Pixel*Frame) : 0.239
Stream size : 6.78 GiB (88%)
Title : Neizvestnyj.(2011).BDRip.1080p.[denis100]
Writing library : x264 core 138 r2358 9e941d1
Encoding settings : cabac=1 / ref=5 / deblock=1:-3:-3 / analyse=0x3:0x133 / me=umh / subme=11 / psy=1 / psy_rd=1.00:0.10 / mixed_ref=1 / me_range=32 / chroma_me=1 / trellis=2 / 8x8dct=1 / cqm=0 / deadzone=21,11 / fast_pskip=0 / chroma_qp_offset=-3 / threads=6 / lookahead_threads=1 / sliced_threads=0 / nr=0 / decimate=1 / interlaced=0 / bluray_compat=0 / constrained_intra=0 / bframes=6 / b_pyramid=2 / b_adapt=2 / b_bias=0 / direct=3 / weightb=1 / open_gop=0 / weightp=2 / keyint=240 / keyint_min=23 / scenecut=40 / intra_refresh=0 / rc=2pass / mbtree=0 / bitrate=8800 / ratetol=1.0 / qcomp=0.60 / qpmin=0 / qpmax=69 / qpstep=4 / cplxblur=20.0 / qblur=0.5 / ip_ratio=1.40 / pb_ratio=1.30 / aq=1:0.90
Language : English
Default : Yes
Forced : No

Audio #1
ID : 2
Format : AC-3
Format/Info : Audio Coding 3
Mode extension : CM (complete main)
Format settings, Endianness : Big
Codec ID : A_AC3
Duration : 1h 53mn
Bit rate mode : Constant
Bit rate : 384 Kbps
Channel(s) : 6 channels
Channel positions : Front: L C R, Side: L R, LFE
Sampling rate : 48.0 KHz
Bit depth : 16 bits
Compression mode : Lossy
Stream size : 311 MiB (4%)
Title : дублированный
Language : Russian
Default : Yes
Forced : No

Audio #2
ID : 3
Format : AC-3
Format/Info : Audio Coding 3
Mode extension : CM (complete main)
Format settings, Endianness : Big
Codec ID : A_AC3
Duration : 1h 53mn
Bit rate mode : Constant
Bit rate : 640 Kbps
Channel(s) : 6 channels
Channel positions : Front: L C R, Side: L R, LFE
Sampling rate : 48.0 KHz
Bit depth : 16 bits
Compression mode : Lossy
Stream size : 518 MiB (7%)
Title : English
Language : English
Default : No
Forced : No

Text #1
ID : 4
Format : UTF-8
Codec ID : S_TEXT/UTF8
Codec ID/Info : UTF-8 Plain Text
Title : Russia
Language : Russian
Default : No
Forced : No

Text #2
ID : 5
Format : UTF-8
Codec ID : S_TEXT/UTF8
Codec ID/Info : UTF-8 Plain Text
Title : Russian (forced)
Language : Russian
Default : Yes
Forced : No

Menu
00:00:00.000 : en:Chapter 01
00:09:15.388 : en:Chapter 02
00:19:32.588 : en:Chapter 03
00:29:58.839 : en:Chapter 04
00:40:44.776 : en:Chapter 05
00:49:34.513 : en:Chapter 06
01:02:26.701 : en:Chapter 07
01:10:14.710 : en:Chapter 08
01:20:00.796 : en:Chapter 09
01:31:05.960 : en:Chapter 10
01:42:33.856 : en:Chapter 11
01:48:35.801 : en:Chapter 12
x264 [info]: frame I:1462 Avg QP:18.10 size:187519
x264 [info]: frame P:40129 Avg QP:20.64 size: 76027
x264 [info]: frame B:121057 Avg QP:22.88 size: 34010
загрузка...
Правила, инструкции, FAQ!!!
Торрент  Добавлен [17 мар 2014, 14:35] Скачать торрент
Скачать торрент
[ Размер 39.22 КБ / Просмотров 8 ]

Статус  
 
Размер  7.74 ГБ
Приватный: Нет (DHT включён)
.torrent скачан  331
Как залить торрент? | Как скачать Torrent? | Как смотреть и слушать онлайн?  


     Отправить личное сообщение
   
Страница 1 из 1
Показать сообщения за:  Поле сортировки  
Начать новую тему Ответить на тему

   Похожие торренты   Автор   Ответы   Просмотры   Последнее сообщение 
В этой теме нет новых непрочитанных сообщений. Скачать торрент Неизвестный / Unknown (2011) BDRip 720p | Лицензия

в форуме 720p | 1080p, Размер: 3.26 ГБ, Здоровье: 0%

Anonymous

0
0|0

22
0

04 янв 2014, 16:34

Anonymous Перейти к последнему сообщению

В этой теме нет новых непрочитанных сообщений. Скачать торрент Проверен [iPad] Неизвестный / Unknown (Жауме Серра/Jaume Collet-Serra) [2011, Триллер, драма, детектив, BDRip, 1024x432] Dub

в форуме Фильмы для iPod, iPhone, iPad, Размер: 2.24 ГБ, Здоровье: 100%

Anonymous

0
28|9

17
0

11 май 2015, 01:33

Anonymous Перейти к последнему сообщению

В этой теме нет новых непрочитанных сообщений. Скачать торрент Неизвестный / Unknown (2011) HDRip | Лицензия

в форуме Триллеры, Размер: 1.45 ГБ, Здоровье: 0%

Anonymous

0
0|0

44
0

04 янв 2014, 16:31

Anonymous Перейти к последнему сообщению

В этой теме нет новых непрочитанных сообщений. Скачать торрент Время / In Time (2011) BDRip 1080p | D, A

в форуме 720p | 1080p, Размер: 7.75 ГБ, Здоровье: 100%

Anonymous

0
100|1

328
451

23 мар 2014, 13:30

Anonymous Перейти к последнему сообщению

В этой теме нет новых непрочитанных сообщений. Скачать торрент Коломбиана / Colombiana (2011) BDRip 1080p

в форуме 720p | 1080p, Размер: 7.75 ГБ, Здоровье: 0%

Anonymous

0
0|0

36
0

21 янв 2014, 13:01

Anonymous Перейти к последнему сообщению



Сейчас этот форум просматривают: нет зарегистрированных пользователей и гости: 3


Вы не можете начинать темы
Вы не можете отвечать на сообщения
Вы не можете редактировать свои сообщения
Вы не можете удалять свои сообщения
Вы не можете добавлять вложения

Перейти:  

!ВНИМАНИЕ!
 Ресурс не предоставляет электронные версии произведений, а занимается лишь коллекционированием и каталогизацией ссылок, присылаемых и публикуемых на форуме нашими читателями. Если вы являетесь правообладателем какого-либо представленного материала и не желаете чтобы ссылка на него находилась в нашем каталоге, свяжитесь с нами и мы незамедлительно удалим её. Файлы для обмена на трекере предоставлены пользователями сайта, и администрация не несёт ответственности за их содержание. Просьба не заливать файлы, защищенные авторскими правами, а также файлы нелегального содержания!