На всех торрентах на трекере установлена скидка на скачивание в размере 100 процентов(а).
 Возможность скачивания торрента НЕ зависит от ограничений при низком ратио, низком аплоаде, требуемом ратио или требуемом аплоаде.


Начать новую тему Ответить на тему
Статистика раздачи
Размер: 4.9 ГБ | Добавлен: 16 мар 2014, 09:28 | Скачали: 0
Сидеров: 0  [0 байт/сек]    Личеров: 0  [0 байт/сек]
Пред. тема | След. тема 

Автор
Сообщение

СообщениеДобавлено: 16 мар 2014, 09:28 

Год выпуска: 2010
Страна: США
Слоган: «Заткнись, криминал!»

Жанр: драма, комедия

Продолжительность: 01:36:04

Перевод: Профессиональный (многоголосый закадровый) НТВ+
Авторский (одноголосый закадровый) Антон Карповский
Одноголосый закадровый Алексей "Doctor_Joker" Матвеев по переводу Сергей "Serene" Ильин
Оригинальная звуковая дорожка
Субтитры: Русские [Сергей "Serene" Ильин], Английские

Режиссёр: Джеймс Ганн / James Gunn

В ролях: Рэйн Уилсон (Frank D'Arbo / The Crimson Bolt), Эллен Пейдж (Libby / Boltie), Лив Тайлер (Sarah), Кевин Бейкон (Jacques), Грегг Генри (Detective John Felkner), Майкл Рукер (Abe), Андре Ройо (Hamilton), Шон Ганн (Toby), Стефен Блекхарт (Quill), Линда Карделлини (Pet Store Employee), Натан Филлион (The Holy Avenger), Уильям Кэтт (Sgt. Fitzgibbon)

Описание: Главный герой Фрэнк - обычный парень. После того как его жену соблазняет драгдилер, бедняга воображает себя супергероем, а отсутствие суперспособностей успешно компенсирует, вооружившись гаечным ключом.

Релиз от:
Автор рипа: serokuz74


Формат: MKV
Качество: BDRip 720p (Исходник: Blu-ray Remux /1080p)
Видео: 1280x692 at 23.976 fps, x264@L4.1, 2pass, ~4992 kbps avg
Аудио #1: 48 kHz, AC3 Dolby Digital, 3/2 (L,C,R,l,r) + LFE ch, ~384.00 kbps avg |MVO, НТВ+|
Аудио #2: 48 kHz, AC3 Dolby Digital, 3/2 (L,C,R,l,r) + LFE ch, ~640.00 kbps avg |AVO, Антон Карповский|
Аудио #3: 48 kHz, AC3 Dolby Digital, 3/2 (L,C,R,l,r) + LFE ch, ~640.00 kbps avg |VO, Doctor Joker|
Аудио #4: 48 kHz, AC3 Dolby Digital, 3/2 (L,C,R,l,r) + LFE ch, ~640.00 kbps avg |ENG|

Скачать: Семпл

General
Unique ID : 234254423886146428077816259986665250349 (0xB03BC2CE0FC73337BAD2F3E824201E2D)
Complete name : D:Super.2010.BDRip.720p.3xRus.Eng.Subs-HELLYWOOD.mkv
Format : Matroska
Format version : Version 2
File size : 4.90 GiB
Duration : 1h 36mn
Overall bit rate : 7 299 Kbps
Movie name : Super (2010) - http://hellywood.ru/
Encoded date : UTC 2014-03-14 15:00:57
Writing application : mkvmerge v6.8.0 ('Theme for Great Cities') 32bit built on Mar 2 2014 21:27:07
Writing library : libebml v1.3.0 + libmatroska v1.4.1

Video
ID : 1
Format : AVC
Format/Info : Advanced Video Codec
Format profile : High@L4.1
Format settings, CABAC : Yes
Format settings, ReFrames : 9 frames
Codec ID : V_MPEG4/ISO/AVC
Duration : 1h 36mn
Bit rate : 4 992 Kbps
Width : 1 280 pixels
Height : 692 pixels
Display aspect ratio : 1.85:1
Frame rate : 23.976 fps
Color space : YUV
Chroma subsampling : 4:2:0
Bit depth : 8 bits
Scan type : Progressive
Bits/(Pixel*Frame) : 0.235
Stream size : 3.26 GiB (66%)
Title : serokuz74
Writing library : x264 core 142 r2389kMod 956c8d8
Encoding settings : cabac=1 / ref=9 / deblock=1:-3:-3 / analyse=0x3:0x133 / me=umh / subme=11 / psy=1 / fade_compensate=0.00 / psy_rd=0.90:0.00 / mixed_ref=1 / me_range=48 / chroma_me=1 / trellis=2 / 8x8dct=1 / cqm=0 / deadzone=21,11 / fast_pskip=0 / chroma_qp_offset=-2 / threads=12 / lookahead_threads=2 / sliced_threads=0 / nr=0 / decimate=0 / interlaced=0 / bluray_compat=0 / constrained_intra=0 / fgo=0 / bframes=11 / b_pyramid=2 / b_adapt=2 / b_bias=0 / direct=3 / weightb=1 / open_gop=0 / weightp=2 / keyint=250 / keyint_min=23 / scenecut=40 / intra_refresh=0 / rc_lookahead=60 / rc=2pass / mbtree=0 / bitrate=4992 / ratetol=1.0 / qcomp=0.60 / qpmin=0 / qpmax=69 / qpstep=4 / cplxblur=20.0 / qblur=0.5 / vbv_maxrate=50000 / vbv_bufsize=62500 / nal_hrd=none / filler=0 / ip_ratio=1.40 / pb_ratio=1.30 / aq=1:0.80
Language : English
Default : Yes
Forced : No
Matrix coefficients : BT.709-5, BT.1361, IEC 61966-2-4 709, SMPTE RP177

Audio #1
ID : 2
Format : AC-3
Format/Info : Audio Coding 3
Mode extension : CM (complete main)
Format settings, Endianness : Big
Codec ID : A_AC3
Duration : 1h 36mn
Bit rate mode : Constant
Bit rate : 384 Kbps
Channel(s) : 6 channels
Channel positions : Front: L C R, Side: L R, LFE
Sampling rate : 48.0 KHz
Bit depth : 16 bits
Compression mode : Lossy
Stream size : 264 MiB (5%)
Title : AC3 5.1 @ 384 kbps - MVO, НТВ+
Language : Russian
Default : Yes
Forced : No

Audio #2
ID : 3
Format : AC-3
Format/Info : Audio Coding 3
Mode extension : CM (complete main)
Format settings, Endianness : Big
Codec ID : A_AC3
Duration : 1h 36mn
Bit rate mode : Constant
Bit rate : 640 Kbps
Channel(s) : 6 channels
Channel positions : Front: L C R, Side: L R, LFE
Sampling rate : 48.0 KHz
Bit depth : 16 bits
Compression mode : Lossy
Stream size : 440 MiB (9%)
Title : AC3 5.1 @ 640 kbps - AVO, Антон Карповский
Language : Russian
Default : No
Forced : No

Audio #3
ID : 4
Format : AC-3
Format/Info : Audio Coding 3
Mode extension : CM (complete main)
Format settings, Endianness : Big
Codec ID : A_AC3
Duration : 1h 36mn
Bit rate mode : Constant
Bit rate : 640 Kbps
Channel(s) : 6 channels
Channel positions : Front: L C R, Side: L R, LFE
Sampling rate : 48.0 KHz
Bit depth : 16 bits
Compression mode : Lossy
Stream size : 440 MiB (9%)
Title : AC3 5.1 @ 640 kbps - VO, Doctor Joker
Language : Russian
Default : No
Forced : No

Audio #4
ID : 5
Format : AC-3
Format/Info : Audio Coding 3
Mode extension : CM (complete main)
Format settings, Endianness : Big
Codec ID : A_AC3
Duration : 1h 36mn
Bit rate mode : Constant
Bit rate : 640 Kbps
Channel(s) : 6 channels
Channel positions : Front: L C R, Side: L R, LFE
Sampling rate : 48.0 KHz
Bit depth : 16 bits
Compression mode : Lossy
Stream size : 440 MiB (9%)
Title : AC3 5.1 @ 640 kbps - Original
Language : English
Default : No
Forced : No

Text #1
ID : 6
Format : UTF-8
Codec ID : S_TEXT/UTF8
Codec ID/Info : UTF-8 Plain Text
Title : Full - Сергей "Serene" Ильин
Language : Russian
Default : No
Forced : No

Text #2
ID : 7
Format : UTF-8
Codec ID : S_TEXT/UTF8
Codec ID/Info : UTF-8 Plain Text
Title : Full
Language : English
Default : No
Forced : No

Menu
00:00:00.000 : en:Chapter 01
00:07:51.971 : en:Chapter 02
00:14:48.304 : en:Chapter 03
00:22:46.282 : en:Chapter 04
00:31:10.827 : en:Chapter 05
00:38:12.874 : en:Chapter 06
00:46:01.968 : en:Chapter 07
00:53:00.260 : en:Chapter 08
01:00:44.140 : en:Chapter 09
01:07:53.611 : en:Chapter 10
01:14:57.910 : en:Chapter 11
01:21:08.197 : en:Chapter 12
01:27:41.715 : en:Chapter 13
01:31:37.492 : en:Chapter 14

x264 [info]: frame I:1170 Avg QP:13.48 size:134207
x264 [info]: frame P:31152 Avg QP:16.52 size: 47421
x264 [info]: frame B:105918 Avg QP:18.21 size: 18536
x264 [info]: consecutive B-frames: 2.4% 5.5% 7.9% 19.2% 17.3% 35.4% 5.4% 1.6% 1.9% 1.1% 1.5% 0.9%
x264 [info]: mb I I16..4: 5.4% 78.2% 16.4%
x264 [info]: mb P I16..4: 1.0% 14.5% 1.9% P16..4: 27.9% 32.1% 13.0% 1.8% 0.2% skip: 7.8%
x264 [info]: mb B I16..4: 0.1% 1.7% 0.3% B16..8: 33.0% 24.5% 4.8% direct: 7.7% skip:28.0% L0:45.6% L1:40.3% BI:14.1%
x264 [info]: 8x8 transform intra:82.8% inter:60.4%
x264 [info]: direct mvs spatial:99.0% temporal:1.0%
x264 [info]: coded y,uvDC,uvAC intra: 88.1% 88.7% 72.3% inter: 31.4% 34.3% 16.1%
x264 [info]: i16 v,h,dc,p: 28% 8% 4% 60%
x264 [info]: i8 v,h,dc,ddl,ddr,vr,hd,vl,hu: 12% 7% 7% 9% 14% 14% 12% 13% 13%
x264 [info]: i4 v,h,dc,ddl,ddr,vr,hd,vl,hu: 31% 7% 6% 7% 12% 11% 10% 8% 8%
x264 [info]: i8c dc,h,v,p: 44% 21% 18% 17%
x264 [info]: Weighted P-Frames: Y:2.1% UV:1.3%
x264 [info]: ref P L0: 47.9% 5.6% 17.3% 8.8% 6.6% 5.0% 4.0% 2.5% 1.9% 0.2% 0.0%
x264 [info]: ref B L0: 67.4% 15.1% 7.3% 4.0% 2.7% 2.0% 1.1% 0.3%
x264 [info]: ref B L1: 91.9% 8.1%

Скриншоты:

загрузка...
Правила, инструкции, FAQ!!!
Торрент  Добавлен [16 мар 2014, 09:28] Скачать торрент
Скачать торрент
[ Размер 12.83 КБ / Просмотров 8 ]

Статус  
 
Размер  4.9 ГБ
Приватный: Нет (DHT включён)
.torrent скачан  0
Как залить торрент? | Как скачать Torrent? | Как смотреть и слушать онлайн?  


     Отправить личное сообщение
   
Страница 1 из 1
Показать сообщения за:  Поле сортировки  
Начать новую тему Ответить на тему

   Похожие торренты   Автор   Ответы   Просмотры   Последнее сообщение 
В этой теме нет новых непрочитанных сообщений. Скачать торрент Супер Рино / Super Rhino (2009) BDRip 720p

в форуме Зарубежные мультфильмы (HD Video), Размер: 150.1 МБ, Здоровье: 100%

Anonymous

0
32|4

66
6

19 янв 2014, 12:40

Anonymous Перейти к последнему сообщению

В этой теме нет новых непрочитанных сообщений. Скачать торрент Проверен Супер стриптиз 3D: Белая Версия / Super Strip 3D: White Edition (2010) BDRip 1080p | HSBS | 3D-Video

в форуме HD-Video в 3D, Размер: 4.18 ГБ, Здоровье: 100%

Anonymous

0
51|1

236
31

07 ноя 2014, 00:30

Anonymous Перейти к последнему сообщению

В этой теме нет новых непрочитанных сообщений. Скачать торрент Проверен Мои Друзья Тигруля и Винни : Супер Пупер Сыщики / My Friends Tigger & Pooh: Super Duper Super Sleuths (2010) DVDRip

в форуме Развивающее Видео для детей, Размер: 698.81 МБ, Здоровье: 100%

Anonymous

0
2|1

12
0

30 ноя 2015, 23:08

Anonymous Перейти к последнему сообщению

В этой теме нет новых непрочитанных сообщений. Скачать торрент Проверен (MP4 480x272) Супер 8 / Super 8 (2011) BDRip

в форуме Видео для смартфонов и КПК, Размер: 497.36 МБ, Здоровье: 100%

Anonymous

0
3|2

30
0

25 окт 2014, 23:22

Anonymous Перейти к последнему сообщению

В этой теме нет новых непрочитанных сообщений. Скачать торрент Супер / Super (2010) HDRip-AVC | P

в форуме Боевики, Размер: 2.09 ГБ, Здоровье: 100%

Anonymous

0
2|0

65
31

16 мар 2014, 09:25

Anonymous Перейти к последнему сообщению



Сейчас этот форум просматривают: нет зарегистрированных пользователей и гости: 3


Вы не можете начинать темы
Вы не можете отвечать на сообщения
Вы не можете редактировать свои сообщения
Вы не можете удалять свои сообщения
Вы не можете добавлять вложения

Перейти:  

!ВНИМАНИЕ!
 Ресурс не предоставляет электронные версии произведений, а занимается лишь коллекционированием и каталогизацией ссылок, присылаемых и публикуемых на форуме нашими читателями. Если вы являетесь правообладателем какого-либо представленного материала и не желаете чтобы ссылка на него находилась в нашем каталоге, свяжитесь с нами и мы незамедлительно удалим её. Файлы для обмена на трекере предоставлены пользователями сайта, и администрация не несёт ответственности за их содержание. Просьба не заливать файлы, защищенные авторскими правами, а также файлы нелегального содержания!