На всех торрентах на трекере установлена скидка на скачивание в размере 100 процентов(а).
 Возможность скачивания торрента НЕ зависит от ограничений при низком ратио, низком аплоаде, требуемом ратио или требуемом аплоаде.


Начать новую тему Ответить на тему
Статистика раздачи
Размер: 13.26 ГБ | Добавлен: 15 мар 2014, 14:08 | Скачали: 0
Сидеров: 0  [0 байт/сек]    Личеров: 0  [0 байт/сек]
Пред. тема | След. тема 

Автор
Сообщение

СообщениеДобавлено: 15 мар 2014, 14:08 

Название: Казанова
Оригинальное название: Casanova
Год выхода: 2005
Жанр: драма, мелодрама, комедия, приключения
Режиссер: Лассе Халльстрем

В ролях: Хит Леджер, Сиенна Миллер, Джереми Айронс, Оливер Платт, Лина Олин, Омид Джалили, Стивен Гриф, Кен Скотт, Хелен МакКрори, Ли Лоусон

О фильме:
Впервые легендарный Казанова встретил достойную соперницу в амурных делах — венецианскую красавицу Франческу. Ей удается неслыханное: устоять перед неотразимыми чарами знаменитого соблазнителя… Ему приходится применить весь арсенал приемов, рисковать своей жизнью и репутацией ради ее благосклонности…



Страна: США
Продолжительность: 01:51:37
Перевод: Профессиональный (дублированный), субтитры


Кодек: x264
Качество: BDRip 1080p
Видео: AVC 1916x806 (2.40:1), 23.976 fps, ~14900 Kbps, 0.40 bit/pixel
Звук:
Аудио 1: Russian AC3 6ch 48kHz 384Kbps | Dub
Аудио 2: English DTS 6ch 48kHz 1510Kbps | Original
Аудио 3: English AC3 2ch 48kHz 192Kbps | Commentary
Субтитры: SRT; русские, английские
General
Complete name : D:Casanova.2005.1080p.mkv
Format : Matroska
Format version : Version 2
File size : 13.3 GiB
Duration : 1h 51mn
Overall bit rate : 17.0 Mbps
Movie name : Casanova.2005.1080p.mkv
Encoded date : UTC 2012-12-01 00:14:58
Writing application : mkvmerge v5.6.0
Writing library : libebml v1.2.3 + libmatroska v1.3.0
Video
ID : 1
Format : AVC
Format/Info : Advanced Video Codec
Format profile : High@L4.1
Format settings, CABAC : Yes
Format settings, ReFrames : 4 frames
Codec ID : V_MPEG4/ISO/AVC
Duration : 1h 51mn
Bit rate : 14.6 Mbps
Width : 1 916 pixels
Height : 806 pixels
Display aspect ratio : 2.40:1
Frame rate mode : Constant
Frame rate : 23.976 fps
Color space : YUV
Chroma subsampling : 4:2:0
Bit depth : 8 bits
Scan type : Progressive
Bits/(Pixel*Frame) : 0.394
Stream size : 11.4 GiB (86%)
Title : Encode by Enclave76
Writing library : x264 core 129 r2230kMod 1cffe9f
Encoding settings : cabac=1 / ref=4 / deblock=1:-3:-3 / analyse=0x3:0x113 / me=umh / subme=11 / psy=1 / fade_compensate=0.00 / psy_rd=1.00:0.00 / mixed_ref=1 / me_range=32 / chroma_me=1 / trellis=2 / 8x8dct=1 / cqm=0 / deadzone=21,11 / fast_pskip=1 / chroma_qp_offset=-2 / threads=6 / lookahead_threads=1 / sliced_threads=0 / nr=0 / decimate=1 / interlaced=0 / bluray_compat=0 / constrained_intra=0 / bframes=8 / b_pyramid=2 / b_adapt=2 / b_bias=0 / direct=1 / weightb=1 / open_gop=0 / weightp=2 / keyint=240 / keyint_min=23 / scenecut=40 / intra_refresh=0 / rc_lookahead=40 / rc=crf / mbtree=0 / crf=18.0000 / qcomp=0.60 / qpmin=0 / qpmax=69 / qpstep=4 / vbv_maxrate=50000 / vbv_bufsize=62500 / crf_max=0.0 / nal_hrd=none / ip_ratio=1.40 / pb_ratio=1.15 / aq=1:0.80
Language : English
Default : No
Forced : No
Matrix coefficients : BT.709
Audio #1
ID : 2
Format : AC-3
Format/Info : Audio Coding 3
Mode extension : CM (complete main)
Format settings, Endianness : Big
Codec ID : A_AC3
Duration : 1h 51mn
Bit rate mode : Constant
Bit rate : 384 Kbps
Channel(s) : 6 channels
Channel positions : Front: L C R, Side: L R, LFE
Sampling rate : 48.0 KHz
Bit depth : 16 bits
Compression mode : Lossy
Stream size : 307 MiB (2%)
Title : Dub
Language : Russian
Default : Yes
Forced : No
Audio #2
ID : 3
Format : DTS
Format/Info : Digital Theater Systems
Codec ID : A_DTS
Duration : 1h 51mn
Bit rate mode : Constant
Bit rate : 1 510 Kbps
Channel(s) : 6 channels
Channel positions : Front: L C R, Side: L R, LFE
Sampling rate : 48.0 KHz
Bit depth : 16 bits
Compression mode : Lossy
Stream size : 1.18 GiB (9%)
Title : Original
Language : English
Default : No
Forced : No
Audio #3
ID : 4
Format : AC-3
Format/Info : Audio Coding 3
Mode extension : CM (complete main)
Format settings, Endianness : Big
Codec ID : A_AC3
Duration : 1h 51mn
Bit rate mode : Constant
Bit rate : 192 Kbps
Channel(s) : 2 channels
Channel positions : Front: L R
Sampling rate : 48.0 KHz
Bit depth : 16 bits
Compression mode : Lossy
Stream size : 153 MiB (1%)
Title : Commentary
Language : English
Default : No
Forced : No
Text #1
ID : 5
Format : UTF-8
Codec ID : S_TEXT/UTF8
Codec ID/Info : UTF-8 Plain Text
Language : Russian
Default : No
Forced : No
Text #2
ID : 6
Format : UTF-8
Codec ID : S_TEXT/UTF8
Codec ID/Info : UTF-8 Plain Text
Language : English
Default : No
Forced : No
-[Information] [30.11.2012 19:45:38] Standard error stream
--[NoImage] raw [info]: 1916x806p 1:1 @ 24000/1001 fps (cfr)
--[NoImage] x264 [info]: using SAR=1/1
--[NoImage] x264 [info]: using cpu capabilities: MMX2 SSE2Fast FastShuffle SSEMisalign LZCNT
--[NoImage] x264 [info]: profile High, level 4.1
--[NoImage] x264 [info]: cabac=1 ref=4 deblock=1:-3:-3 analyse=0x3:0x113 me=umh subme=11 psy=1 fade_compensate=0.00 psy_rd=1.00:0.00 mixed_ref=1 me_range=32 chroma_me=1 trellis=2 8x8dct=1 cqm=0 deadzone=21,11 fast_pskip=1 chroma_qp_offset=-2 threads=6 lookahead_threads=1 sliced_threads=0 nr=0 decimate=1 interlaced=0 bluray_compat=0 constrained_intra=0 bframes=8 b_pyramid=2 b_adapt=2 b_bias=0 direct=1 weightb=1 open_gop=0 weightp=2 keyint=240 keyint_min=23 scenecut=40 intra_refresh=0 rc_lookahead=40 rc=crf mbtree=0 crf=18.0000 qcomp=0.60 qpmin=0 qpmax=69 qpstep=4 vbv_maxrate=50000 vbv_bufsize=62500 crf_max=0.0 nal_hrd=none ip_ratio=1.40 pb_ratio=1.15 aq=1:0.80
--[NoImage] frames fps kb/s elapsed remain size est.size
--[NoImage] x264 [info]: frame I:1233 Avg QP:16.84 size:241457
--[NoImage] x264 [info]: frame P:32296 Avg QP:18.52 size:116845
--[NoImage] x264 [info]: frame B:127031 Avg QP:19.74 size: 66264
--[NoImage] x264 [info]: consecutive B-frames: 1.4% 1.7% 9.3% 9.7% 10.3% 61.3% 4.4% 0.9% 0.9%
--[NoImage] x264 [info]: mb I I16..4: 3.8% 89.6% 6.6%
--[NoImage] x264 [info]: mb P I16..4: 0.7% 31.4% 0.9% P16..4: 23.6% 27.8% 8.9% 0.0% 0.0% skip: 6.8%
--[NoImage] x264 [info]: mb B I16..4: 0.1% 9.2% 0.1% B16..8: 37.6% 20.0% 3.2% direct:10.2% skip:19.4% L0:32.3% L1:34.9% BI:32.8%
--[NoImage] x264 [info]: 8x8 transform intra:96.0% inter:58.3%
--[NoImage] x264 [info]: coded y,uvDC,uvAC intra: 96.7% 85.1% 54.2% inter: 47.5% 32.4% 5.9%
--[NoImage] x264 [info]: i16 v,h,dc,p: 27% 10% 9% 54%
--[NoImage] x264 [info]: i8 v,h,dc,ddl,ddr,vr,hd,vl,hu: 9% 7% 20% 9% 11% 11% 11% 11% 12%
--[NoImage] x264 [info]: i4 v,h,dc,ddl,ddr,vr,hd,vl,hu: 15% 7% 7% 8% 14% 14% 13% 11% 11%
--[NoImage] x264 [info]: i8c dc,h,v,p: 35% 26% 21% 18%
--[NoImage] x264 [info]: Weighted P-Frames: Y:3.8% UV:1.7%
--[NoImage] x264 [info]: ref P L0: 50.3% 12.7% 25.2% 10.5% 1.3% 0.0%
--[NoImage] x264 [info]: ref B L0: 89.4% 9.3% 1.4%
--[NoImage] x264 [info]: ref B L1: 93.4% 6.6%
--[NoImage] x264 [info]: kb/s:14919.52
загрузка...
Правила, инструкции, FAQ!!!
Торрент  Добавлен [15 мар 2014, 14:08] Скачать торрент
Скачать торрент
[ Размер 33.64 КБ / Просмотров 6 ]

Статус  
 
Размер  13.26 ГБ
Приватный: Нет (DHT включён)
.torrent скачан  0
Как залить торрент? | Как скачать Torrent? | Как смотреть и слушать онлайн?  


     Отправить личное сообщение
   
Страница 1 из 1
Показать сообщения за:  Поле сортировки  
Начать новую тему Ответить на тему

   Похожие торренты   Автор   Ответы   Просмотры   Последнее сообщение 
В этой теме нет новых непрочитанных сообщений. Скачать торрент Проверен (Hard Rock) Casanova - Casanova - 1991 (Deluxe Edition 2010), FLAC (image+.cue), lossless

в форуме Classic Rock & Hard Rock, Размер: 575.92 МБ, Здоровье: 0%

Anonymous

0
0|0

1
0

03 сен 2016, 13:16

Anonymous Перейти к последнему сообщению

В этой теме нет новых непрочитанных сообщений. Скачать торрент Проверен (Hard-Rock) Casanova - Casanova - 1991, APE (image+.cue), lossless

в форуме Classic Rock & Hard Rock, Размер: 329.89 МБ, Здоровье: 0%

Anonymous

0
0|0

0
0

03 сен 2016, 16:41

Anonymous Перейти к последнему сообщению

В этой теме нет новых непрочитанных сообщений. Скачать торрент Изо всех сил / Over the Top (2005) BDRip 1080p | P, P2, A

в форуме 720p | 1080p, Размер: 7.75 ГБ, Здоровье: 0%

Anonymous

0
0|0

20
0

14 мар 2014, 08:10

Anonymous Перейти к последнему сообщению

В этой теме нет новых непрочитанных сообщений. Скачать торрент Проверен Спи со мной / Lie with Me (2005) BDRip 1080p | P2

в форуме 720p | 1080p, Размер: 8.22 ГБ, Здоровье: 100%

Anonymous

0
29|6

26
270

03 ноя 2014, 23:29

Anonymous Перейти к последнему сообщению

В этой теме нет новых непрочитанных сообщений. Скачать торрент Проверен Ангел-А / Angel-A (2005) BDRip 1080p | D, A, L1

в форуме 720p | 1080p, Размер: 7.9 ГБ, Здоровье: 100%

Anonymous

0
61|21

24
138

08 ноя 2014, 22:22

Anonymous Перейти к последнему сообщению



Сейчас этот форум просматривают: нет зарегистрированных пользователей и гости: 2


Вы не можете начинать темы
Вы не можете отвечать на сообщения
Вы не можете редактировать свои сообщения
Вы не можете удалять свои сообщения
Вы не можете добавлять вложения

Перейти:  

!ВНИМАНИЕ!
 Ресурс не предоставляет электронные версии произведений, а занимается лишь коллекционированием и каталогизацией ссылок, присылаемых и публикуемых на форуме нашими читателями. Если вы являетесь правообладателем какого-либо представленного материала и не желаете чтобы ссылка на него находилась в нашем каталоге, свяжитесь с нами и мы незамедлительно удалим её. Файлы для обмена на трекере предоставлены пользователями сайта, и администрация не несёт ответственности за их содержание. Просьба не заливать файлы, защищенные авторскими правами, а также файлы нелегального содержания!