На всех торрентах на трекере установлена скидка на скачивание в размере 100 процентов(а).
 Возможность скачивания торрента НЕ зависит от ограничений при низком ратио, низком аплоаде, требуемом ратио или требуемом аплоаде.


Начать новую тему Ответить на тему
Статистика раздачи
Размер: 7.74 ГБ | Добавлен: 15 мар 2014, 13:47 | Скачали: 0
Сидеров: 0  [0 байт/сек]    Личеров: 0  [0 байт/сек]
Пред. тема | След. тема 

Автор
Сообщение

СообщениеДобавлено: 15 мар 2014, 13:47 

Название: Шоколад
Оригинальное название: Chocolat
Год выпуска: 2000
Жанр: Мелодрама, комедия, драма, экранизация
Выпущено: США, Великобритания, David Brown Productions, Miramax Films
Режиссер: Лассе Халльстрём

В ролях: Жюльетт Бинош, Джуди Денч, Альфред Молина, Кэрри-Энн Мосс, Джонни Депп, Лена Улин, Антонио Гил-Мартинес, Хелен Кардона, Хью О`Конор, Харрисон Прэтт, Гэлан Коннелл, Петер Стормаре, Орелин Парент Кениг, Лесли Карон

Перевод: Дублированный, профессиональный двухголосый, авторский

Сюжет фильма
Маленький французский городок живет своей привычной, размеренной жизнью – строгие распорядки и правила, регулярные походы в церковь – и, казалось бы, ничего не предвещает изменений. Но вот внезапно меняется ветер, и в городке появляются два новых жителя – Виенн и ее шестилетняя дочь, Анук. Они открывают маленькую лавку сладостей, в которой Виенн готовит изумительный шоколад, умея угадывать вкусы своих покупателей. С каждым днем заходя в лавку все чаще, жители городка начинают понимать, что шоколад таинственной незнакомки обладает волшебным действием – враждующие соседи стали мириться и осознавать, что им не нравится старомодный порядок городка. Но такое развитие событий совсем не устраивает мэра – ведь тогда его беспрекословная власть может рухнуть. А Виенн тем временем продолжает готовить шоколад для жителей, и случайно встречает человека, способного угадать ее желания...Экранизация по произведению Джоанн Харрис




Качество: BDRip 720p (исходник Blu-ray)
Видео: 1280x720, 6 099 Кбит/сек, 23.976 кадр/сек, AVC, x264, High@L4.1, 0.276 Бит/[Пиксели*Кадры], 2pass
Аудио 1: AC3 5.1 48 kHz 448 kbps - Дублированный, R5
Аудио 2: AC3 5.1 48 kHz 640 kbps - Авторский (одноголосый закадровый, М.Иванов)
Аудио 3: AC3 5.1 48 kHz 640 kbps - Профессиональный (двухголосый закадровый, Карусель)
Аудио 4: AC3 5.1 48 kHz 640 kbps - Авторский (одноголосый закадровый, А. Карповский)
Аудио 5: AC3 5.1 48 kHz 640 kbps - English
Чаптеры: есть
Субтитры: Russian
Продолжительность: 02:01:49
Автор рипа: Сообщество:


Format : Matroska
Format version : Version 2
File size : 7.74 GiB
Duration : 2h 1mn
Overall bit rate : 9 108 Kbps
Movie name : Shokolat.(2000).BDRip.720p.[denis100]
Encoded date : UTC 2014-03-12 09:02:42
Writing application : mkvmerge v5.8.0 ('No Sleep / Pillow') built on Sep 2 2012 15:37:04
Writing library : libebml v1.2.3 + libmatroska v1.3.0

Video
ID : 1
Format : AVC
Format/Info : Advanced Video Codec
Format profile : High@L4.1
Format settings, CABAC : Yes
Format settings, ReFrames : 9 frames
Codec ID : V_MPEG4/ISO/AVC
Duration : 2h 1mn
Bit rate : 6 099 Kbps
Width : 1 280 pixels
Height : 720 pixels
Display aspect ratio : 16:9
Frame rate mode : Constant
Frame rate : 23.976 fps
Color space : YUV
Chroma subsampling : 4:2:0
Bit depth : 8 bits
Scan type : Progressive
Bits/(Pixel*Frame) : 0.276
Stream size : 5.03 GiB (65%)
Title : Shokolat.(2000).BDRip.720p.[denis100]
Writing library : x264 core 138 r2358 9e941d1
Encoding settings : cabac=1 / ref=9 / deblock=1:-3:-3 / analyse=0x3:0x133 / me=umh / subme=11 / psy=1 / psy_rd=1.00:0.10 / mixed_ref=1 / me_range=32 / chroma_me=1 / trellis=2 / 8x8dct=1 / cqm=0 / deadzone=21,11 / fast_pskip=0 / chroma_qp_offset=-3 / threads=6 / lookahead_threads=1 / sliced_threads=0 / nr=0 / decimate=1 / interlaced=0 / bluray_compat=0 / constrained_intra=0 / bframes=5 / b_pyramid=2 / b_adapt=2 / b_bias=0 / direct=3 / weightb=1 / open_gop=0 / weightp=2 / keyint=240 / keyint_min=23 / scenecut=40 / intra_refresh=0 / rc=2pass / mbtree=0 / bitrate=6099 / ratetol=1.0 / qcomp=0.60 / qpmin=0 / qpmax=69 / qpstep=4 / cplxblur=20.0 / qblur=0.5 / ip_ratio=1.40 / pb_ratio=1.30 / aq=1:0.90
Language : English
Default : Yes
Forced : No

Audio #1
ID : 2
Format : AC-3
Format/Info : Audio Coding 3
Mode extension : CM (complete main)
Format settings, Endianness : Big
Codec ID : A_AC3
Duration : 2h 1mn
Bit rate mode : Constant
Bit rate : 448 Kbps
Channel(s) : 6 channels
Channel positions : Front: L C R, Side: L R, LFE
Sampling rate : 48.0 KHz
Bit depth : 16 bits
Compression mode : Lossy
Stream size : 390 MiB (5%)
Title : Дублированный, R5
Language : Russian
Default : Yes
Forced : No

Audio #2
ID : 3
Format : AC-3
Format/Info : Audio Coding 3
Mode extension : CM (complete main)
Format settings, Endianness : Big
Codec ID : A_AC3
Duration : 2h 1mn
Bit rate mode : Constant
Bit rate : 640 Kbps
Channel(s) : 6 channels
Channel positions : Front: L C R, Side: L R, LFE
Sampling rate : 48.0 KHz
Bit depth : 16 bits
Compression mode : Lossy
Stream size : 557 MiB (7%)
Title : Авторский (одноголосый закадровый, М.Иванов)
Language : Russian
Default : No
Forced : No

Audio #3
ID : 4
Format : AC-3
Format/Info : Audio Coding 3
Mode extension : CM (complete main)
Format settings, Endianness : Big
Codec ID : A_AC3
Duration : 2h 1mn
Bit rate mode : Constant
Bit rate : 640 Kbps
Channel(s) : 6 channels
Channel positions : Front: L C R, Side: L R, LFE
Sampling rate : 48.0 KHz
Bit depth : 16 bits
Compression mode : Lossy
Stream size : 557 MiB (7%)
Title : Профессиональный (двухголосый закадровый, Карусель)
Language : Russian
Default : No
Forced : No

Audio #4
ID : 5
Format : AC-3
Format/Info : Audio Coding 3
Mode extension : CM (complete main)
Format settings, Endianness : Big
Codec ID : A_AC3
Duration : 2h 1mn
Bit rate mode : Constant
Bit rate : 640 Kbps
Channel(s) : 6 channels
Channel positions : Front: L C R, Side: L R, LFE
Sampling rate : 48.0 KHz
Bit depth : 16 bits
Compression mode : Lossy
Stream size : 557 MiB (7%)
Title : Авторский (одноголосый закадровый, А. Карповский)
Language : Russian
Default : No
Forced : No

Audio #5
ID : 6
Format : AC-3
Format/Info : Audio Coding 3
Mode extension : CM (complete main)
Format settings, Endianness : Big
Codec ID : A_AC3
Duration : 2h 1mn
Bit rate mode : Constant
Bit rate : 640 Kbps
Channel(s) : 6 channels
Channel positions : Front: L C R, Side: L R, LFE
Sampling rate : 48.0 KHz
Bit depth : 16 bits
Compression mode : Lossy
Stream size : 557 MiB (7%)
Title : English
Language : English
Default : No
Forced : No

Text
ID : 7
Format : UTF-8
Codec ID : S_TEXT/UTF8
Codec ID/Info : UTF-8 Plain Text
Title : Russian
Language : Russian
Default : No
Forced : No

Menu
00:00:00.000 : en:00:00:00.000
00:07:13.850 : en:00:07:13.850
00:17:21.123 : en:00:17:21.123
00:22:16.793 : en:00:22:16.793
00:28:17.779 : en:00:28:17.779
00:36:56.213 : en:00:36:56.213
00:40:44.358 : en:00:40:44.358
00:48:59.603 : en:00:48:59.603
00:53:43.261 : en:00:53:43.261
01:00:54.525 : en:01:00:54.525
01:07:40.264 : en:01:07:40.264
01:16:22.286 : en:01:16:22.286
01:24:43.078 : en:01:24:43.078
01:35:43.821 : en:01:35:43.821
01:44:38.355 : en:01:44:38.355
01:52:20.483 : en:01:52:20.483

x264 [info]: frame I:1307 Avg QP:15.68 size:136312
x264 [info]: frame P:37384 Avg QP:17.52 size: 53188
x264 [info]: frame B:136361 Avg QP:19.78 size: 24916
загрузка...
Правила, инструкции, FAQ!!!
Торрент  Добавлен [15 мар 2014, 13:47] Скачать торрент
Скачать торрент
[ Размер 39.22 КБ / Просмотров 4 ]

Статус  
 
Размер  7.74 ГБ
Приватный: Нет (DHT включён)
.torrent скачан  0
Как залить торрент? | Как скачать Torrent? | Как смотреть и слушать онлайн?  


     Отправить личное сообщение
   
Страница 1 из 1
Показать сообщения за:  Поле сортировки  
Начать новую тему Ответить на тему

   Похожие торренты   Автор   Ответы   Просмотры   Последнее сообщение 
В этой теме нет новых непрочитанных сообщений. Скачать торрент Шоколад / Chocolat (2000) BDRip 720p

в форуме 720p | 1080p, Размер: 5.07 ГБ, Здоровье: 0%

Anonymous

0
0|0

17
0

15 мар 2014, 13:49

Anonymous Перейти к последнему сообщению

В этой теме нет новых непрочитанных сообщений. Скачать торрент Проверен [iPad] Шоколад / Chocolat (Лассе Халльстрём / Lasse Hallstrom) [2000 г., драма, мелодрама, детектив, BDRip]

в форуме Фильмы для iPod, iPhone, iPad, Размер: 2.4 ГБ, Здоровье: 100%

Anonymous

0
10|3

14
0

11 май 2015, 01:41

Anonymous Перейти к последнему сообщению

В этой теме нет новых непрочитанных сообщений. Скачать торрент Проверен Cuisine Couronnes #5 - Le chocolat : les douces recettes / Шоколад: сладкие рецепты [2000, PDF, FRA]

в форуме Кулинария, Размер: 22.66 МБ, Здоровье: 0%

Anonymous

0
0|0

2
0

19 окт 2016, 21:11

Anonymous Перейти к последнему сообщению

В этой теме нет новых непрочитанных сообщений. Скачать торрент Проверен Corbis - Chocolat / Шоколад [PDF, FRA]

в форуме Кулинария, Размер: 22.66 МБ, Здоровье: 0%

Anonymous

0
0|0

0
0

19 окт 2016, 22:17

Anonymous Перейти к последнему сообщению

В этой теме нет новых непрочитанных сообщений. Скачать торрент Проверен Траффик / Traffic (2000) BDRip 720p | D, P, A

в форуме 720p | 1080p, Размер: 9.7 ГБ, Здоровье: 100%

Гость

0
27|15

28
77

20 дек 2014, 01:02

Гость Перейти к последнему сообщению



Сейчас этот форум просматривают: нет зарегистрированных пользователей и гости: 2


Вы не можете начинать темы
Вы не можете отвечать на сообщения
Вы не можете редактировать свои сообщения
Вы не можете удалять свои сообщения
Вы не можете добавлять вложения

Перейти:  

!ВНИМАНИЕ!
 Ресурс не предоставляет электронные версии произведений, а занимается лишь коллекционированием и каталогизацией ссылок, присылаемых и публикуемых на форуме нашими читателями. Если вы являетесь правообладателем какого-либо представленного материала и не желаете чтобы ссылка на него находилась в нашем каталоге, свяжитесь с нами и мы незамедлительно удалим её. Файлы для обмена на трекере предоставлены пользователями сайта, и администрация не несёт ответственности за их содержание. Просьба не заливать файлы, защищенные авторскими правами, а также файлы нелегального содержания!