На всех торрентах на трекере установлена скидка на скачивание в размере 100 процентов(а).
 Возможность скачивания торрента НЕ зависит от ограничений при низком ратио, низком аплоаде, требуемом ратио или требуемом аплоаде.


Начать новую тему Ответить на тему
Статистика раздачи
Размер: 5.12 ГБ | Добавлен: 13 мар 2014, 21:10 | Скачали: 0
Сидеров: 5  [0 байт/сек]    Личеров: 0  [0 байт/сек]
Пред. тема | След. тема 

Автор
Сообщение

СообщениеДобавлено: 13 мар 2014, 21:10 

Название: Близкие враги
Оригинальное название: Enemies Closer
Год выхода: 2013
Жанр: триллер
Режиссер: Питер Хайамс

В ролях: Жан-Клод Ван Дамм, Орландо Джонс, Том Эверетт Скотт, Линзи Коккер, Кристофер Ван Варенберг, Захари Бахаров, Атанас Сребрев, Мэтт Медрано, Йонас Токингтон, Христо Митцков

О фильме:
Генри – бывший «морской котик», который оставил армейскую службу и попытался забыть все, что с ней связано. Теперь он работает рейнджером на границе между Канадой и США, живет в одиноком лесном доме и не страдает от отсутствия собеседников. Однажды в размеренную жизнь Генри ворвалось прошлое, от которого он бежал: на пороге оказался враг, давно искавший его. У этого врага, молодого мужчины по имени Клэй, к Генри скопилось немало претензий, и он собирается наконец покарать его.

Впрочем, и этим планам не суждено было сбыться в тот вечер. Когда Клэй привел Генри на берег озера, чтобы с ним разделаться, в их конфликт вмешалась третья сила. Банда наркоторговцев, потерявшая крупную партию наркотиков, заметила на берегу двоих мужчин и решила использовать их для поисков. Теперь Генри и Клэю, загнанным в угол и вполне обоснованно опасающимся за свою жизнь, придется найти способ работать в команде, ведь иначе им обоим совершенно точно не уцелеть.



Выпущено: Канада, США
Продолжительность: 01:21:40
Озвучивание:
Профессиональное (двухголосое) [Пиратская Студия]
Авторское (одноголосое) [Д.Есарев]
Любительское (одгоголосое) [ХиХидок]


Формат: MKV
Качество: BDRip 720p [WiKi]
Видео: 4000 kb/s, 1280x720
Аудио:
Russian [Пиратская Студия]: AC3, 448 kb/s (6 ch)
Russian [Д.Есарев] / [ХихиДок]: DTS, 1510 kb/s (6 ch)
English: DTS, 1510 kb/s (6 ch)
Субтитры: Russian [jasinpapa], English
Дополнительно: Сохранены оригинальные чаптеры как на Blu-Ray

Скачать: Сэмпл

Релиз группы:




Общее
Enemies.Closer.2013.Blu.Ray.720p.CINEMANIA.mkv
Формат : Matroska
Версия формата : Version 4 / Version 2
Размер файла : 5,12 Гбайт
Продолжительность : 1 ч. 21 м.
Общий поток : 8971 Кбит/сек
Название фильма : Release Group CINEMANIA
Дата кодирования : UTC 2014-03-13 15:37:43
Программа кодирования : mkvmerge v6.8.0 ('Theme for Great Cities') 64bit built on Mar 2 2014 21:34:26
Библиотека кодирования : libebml v1.3.0 + libmatroska v1.4.1

Видео
Идентификатор : 1
Формат : AVC
Формат/Информация : Advanced Video Codec
Профиль формата : High@L4.1
Параметр CABAC формата : Да
Параметр ReFrames формата : 9 кадров
Идентификатор кодека : V_MPEG4/ISO/AVC
Продолжительность : 1 ч. 21 м.
Битрейт : 4000 Кбит/сек
Ширина : 1280 пикселей
Высота : 720 пикселей
Соотношение сторон : 16:9
Режим частоты кадров : Постоянный
Частота кадров : 25,000 кадров/сек
Цветовое пространство : YUV
Субдискретизация насыщенности : 4:2:0
Битовая глубина : 8 бит
Тип развёртки : Прогрессивная
Бит/(Пиксели*Кадры) : 0.174
Размер потока : 2,18 Гбайт (43%)
Заголовок : Release Group CINEMANIA
Библиотека кодирования : x264 core 136 r2348+704+51 d1baef6 tMod [8-bit@all X86]
Настройки программы : cabac=1 / ref=9 / deblock=1:-2:-2 / analyse=0x3:0x133 / me=umh / subme=11 / psy=1 / fade_compensate=0.00 / psy_rd=1.05:0.05 / mixed_ref=1 / me_range=32 / chroma_me=1 / trellis=2 / 8x8dct=1 / cqm=0 / deadzone=21,11 / fast_pskip=0 / chroma_qp_offset=-3 / threads=12 / lookahead_threads=2 / sliced_threads=0 / nr=0 / decimate=0 / interlaced=0 / bluray_compat=0 / constrained_intra=0 / fgo=0 / bframes=8 / b_pyramid=2 / b_adapt=2 / b_bias=0 / direct=3 / weightb=1 / open_gop=0 / weightp=2 / keyint=250 / keyint_min=25 / scenecut=40 / intra_refresh=0 / rc=2pass / mbtree=0 / bitrate=4000 / ratetol=1.0 / qcomp=0.70 / qpmin=0:0:0 / qpmax=69:69:69 / qpstep=4 / cplxblur=20.0 / qblur=0.5 / ip_ratio=1.40 / pb_ratio=1.30 / aq=3:0.85 / aq-sensitivity=10.00 / aq-factor=1.00:1.00:1.00 / aq2=0 / aq3=0
Язык : English
Default : Да
Forced : Нет

Аудио #1
Идентификатор : 2
Формат : AC-3
Формат/Информация : Audio Coding 3
Расширение режима : CM (complete main)
Параметр Endianness формата : Big
Идентификатор кодека : A_AC3
Продолжительность : 1 ч. 21 м.
Вид битрейта : Постоянный
Битрейт : 448 Кбит/сек
Каналы : 6 каналов
Расположение каналов : Front: L C R, Side: L R, LFE
Частота : 48,0 КГц
Битовая глубина : 16 бит
Метод сжатия : С потерями
Размер потока : 262 Мбайт (5%)
Заголовок : Пиратская Студия
Язык : Russian
Default : Да
Forced : Да

Аудио #2
Идентификатор : 3
Формат : DTS
Формат/Информация : Digital Theater Systems
Режим : 16
Параметр Endianness формата : Big
Идентификатор кодека : A_DTS
Продолжительность : 1 ч. 21 м.
Вид битрейта : Постоянный
Битрейт : 1509 Кбит/сек
Каналы : 6 каналов
Расположение каналов : Front: L C R, Side: L R, LFE
Частота : 48,0 КГц
Битовая глубина : 16 бит
Метод сжатия : С потерями
Размер потока : 882 Мбайт (17%)
Заголовок : Д.Есарев
Язык : Russian
Default : Нет
Forced : Нет

Аудио #3
Идентификатор : 4
Формат : DTS
Формат/Информация : Digital Theater Systems
Режим : 16
Параметр Endianness формата : Big
Идентификатор кодека : A_DTS
Продолжительность : 1 ч. 21 м.
Вид битрейта : Постоянный
Битрейт : 1510 Кбит/сек
Каналы : 6 каналов
Расположение каналов : Front: L C R, Side: L R, LFE
Частота : 48,0 КГц
Битовая глубина : 24 бит
Метод сжатия : С потерями
Размер потока : 882 Мбайт (17%)
Заголовок : ХиХиДок
Язык : Russian
Default : Нет
Forced : Нет

Аудио #4
Идентификатор : 5
Формат : DTS
Формат/Информация : Digital Theater Systems
Режим : 16
Параметр Endianness формата : Big
Идентификатор кодека : A_DTS
Продолжительность : 1 ч. 21 м.
Вид битрейта : Постоянный
Битрейт : 1509 Кбит/сек
Каналы : 6 каналов
Расположение каналов : Front: L C R, Side: L R, LFE
Частота : 48,0 КГц
Битовая глубина : 16 бит
Метод сжатия : С потерями
Размер потока : 882 Мбайт (17%)
Язык : English
Default : Нет
Forced : Нет

Текст #1
Идентификатор : 6
Формат : UTF-8
Идентификатор кодека : S_TEXT/UTF8
Идентификатор кодека/Информация : UTF-8 Plain Text
Заголовок : jasinpapa
Язык : Russian
Default : Нет
Forced : Нет

Текст #2
Идентификатор : 7
Формат : UTF-8
Идентификатор кодека : S_TEXT/UTF8
Идентификатор кодека/Информация : UTF-8 Plain Text
Язык : English
Default : Нет
Forced : Нет

Меню
00:00:00.000 : en:00:00:00.000
00:05:18.040 : en:00:05:18.040
00:11:30.640 : en:00:11:30.640
00:17:17.400 : en:00:17:17.400
00:25:16.600 : en:00:25:16.600
00:32:33.440 : en:00:32:33.440
00:39:45.480 : en:00:39:45.480
00:48:06.400 : en:00:48:06.400
00:56:29.400 : en:00:56:29.400
01:03:02.800 : en:01:03:02.800
01:10:09.800 : en:01:10:09.800
01:16:13.240 : en:01:16:13.240
загрузка...
Правила, инструкции, FAQ!!!
Торрент  Добавлен [13 мар 2014, 21:10] Скачать торрент
Скачать торрент
[ Размер 26.17 КБ / Просмотров 5 ]

Статус  
 
Размер  5.12 ГБ
Приватный: Нет (DHT включён)
.torrent скачан  0
Как залить торрент? | Как скачать Torrent? | Как смотреть и слушать онлайн?  


     Отправить личное сообщение
   
Страница 1 из 1
Показать сообщения за:  Поле сортировки  
Начать новую тему Ответить на тему

   Похожие торренты   Автор   Ответы   Просмотры   Последнее сообщение 
В этой теме нет новых непрочитанных сообщений. Скачать торрент Близкие враги / Enemies Closer (2013) DVDRip-AVC | L1

в форуме 720p | 1080p, Размер: 1.52 ГБ, Здоровье: 100%

Anonymous

0
33|1

29
28

05 дек 2013, 21:25

Anonymous Перейти к последнему сообщению

В этой теме нет новых непрочитанных сообщений. Скачать торрент Близкие враги / Enemies Closer (2013) DVDRip | L1

в форуме Триллеры, Размер: 737.67 МБ, Здоровье: 100%

Anonymous

0
14|0

33
7

21 янв 2014, 10:22

Anonymous Перейти к последнему сообщению

В этой теме нет новых непрочитанных сообщений. Скачать торрент Проверен Бранднер Гарри - Близкие контакты в округе Мэдисон [Заборовский Юрий, 2013 г., 96 kbps, MP3]

в форуме Зарубежная фантастика, фэнтези, мистика, ужасы, Размер: 25.98 МБ, Здоровье: 0%

Anonymous

0
0|0

0
0

11 сен 2016, 10:38

Anonymous Перейти к последнему сообщению

В этой теме нет новых непрочитанных сообщений. Скачать торрент Проверен Устинова Татьяна - Близкие люди [Ненарокомова Татьяна, 2013 г., 96 kbps, MP3]

в форуме Детектив и Боевики, Размер: 749.35 МБ, Здоровье: 0%

Anonymous

0
0|0

0
0

20 ноя 2016, 17:57

Anonymous Перейти к последнему сообщению

В этой теме нет новых непрочитанных сообщений. Скачать торрент Проверен (Psychedelic rock) Selim Lemouchi & His Enemies - Earth Air Spirit Water Fire - 2013, MP3, 320 kbps

в форуме Рок, Панк, Метал, Альтернатива, Размер: 99.61 МБ, Здоровье: 100%

Anonymous

0
12|5

18
2

05 май 2016, 23:56

Anonymous Перейти к последнему сообщению



Сейчас этот форум просматривают: нет зарегистрированных пользователей и гости: 1


Вы не можете начинать темы
Вы не можете отвечать на сообщения
Вы не можете редактировать свои сообщения
Вы не можете удалять свои сообщения
Вы не можете добавлять вложения

Перейти:  

!ВНИМАНИЕ!
 Ресурс не предоставляет электронные версии произведений, а занимается лишь коллекционированием и каталогизацией ссылок, присылаемых и публикуемых на форуме нашими читателями. Если вы являетесь правообладателем какого-либо представленного материала и не желаете чтобы ссылка на него находилась в нашем каталоге, свяжитесь с нами и мы незамедлительно удалим её. Файлы для обмена на трекере предоставлены пользователями сайта, и администрация не несёт ответственности за их содержание. Просьба не заливать файлы, защищенные авторскими правами, а также файлы нелегального содержания!