На всех торрентах на трекере установлена скидка на скачивание в размере 100 процентов(а).
 Возможность скачивания торрента НЕ зависит от ограничений при низком ратио, низком аплоаде, требуемом ратио или требуемом аплоаде.


Начать новую тему Ответить на тему
Статистика раздачи
Размер: 7.76 ГБ | Добавлен: 13 мар 2014, 14:43 | Скачали: 0
Сидеров: 0  [0 байт/сек]    Личеров: 0  [0 байт/сек]
Пред. тема | След. тема 

Автор
Сообщение

СообщениеДобавлено: 13 мар 2014, 14:43 

Название: Август
Оригинальное название: August: Osage County
Год выпуска: 2013
Жанр: драма
Режиссер: Джон Уэллс

В ролях: Мэрил Стрип, Джулия Робертс, Джулианна Николсон, Марго Мартиндейл, Эбигейл Бреслин, Эван МакГрегор, Джульетт Льюис, Дермот Малруни, Сэм Шепард, Бенедикт Камбербэтч

О фильме:
В городе Талса, штат Оклахома, в отчий дом съезжаются члены большой семьи Уэстонов. Случилось несчастье и три дочери Барбара, Карен, Иви, их мать Виолетта, тетя Метти Фей, а также их мужья, дети и ухажеры собираются под одной крышей, пьют виски и выясняют отношения, обвиняя друг друга в предательствах, подавленных чувствах и изломанных судьбах. У каждого есть свой скелет в шкафу и все тайное, что обычно скрывается за фасадом благополучного дома, становится явным.



Выпущено: США
Продолжительность: 02:00:49
Перевод: Дублированный + Оригинал


Кодек: x264
Качество: BDRip 1080p
Видео: 1920x804, 8302 Kbps, 23.976 fps
Аудио #1: AC-3, 6 ch, 448 kbps (Rus)
Аудио #2: AC-3, 6 ch, 448 kbps (Eng)
Субтитры: русские, английские

Общее
Уникальный идентификатор : 172109552911505308603768458068180261938 (0x817B181B4FAEB05A90CBC461F4B6DC32)
Полное имя : Август.2013.BDRip.1080p.Rus.Eng.mkv
Формат : Matroska
Версия формата : Version 2
Размер файла : 7,76 Гбайт
Продолжительность : 2 ч. 0 м.
Общий поток : 9198 Кбит/сек
Название фильма : Август.2013
Дата кодирования : UTC 2014-03-13 09:59:27
Программа кодирования : mkvmerge v5.8.0 ('No Sleep / Pillow') built on Sep 2 2012 15:37:04
Библиотека кодирования : libebml v1.2.3 + libmatroska v1.3.0

Видео
Идентификатор : 1
Формат : AVC
Формат/Информация : Advanced Video Codec
Профиль формата : High@L4.1
Параметр CABAC формата : Да
Параметр ReFrames формата : 5 кадров
Идентификатор кодека : V_MPEG4/ISO/AVC
Продолжительность : 2 ч. 0 м.
Битрейт : 8302 Кбит/сек
Ширина : 1920 пикселей
Высота : 804 пикселя
Соотношение сторон : 2,40:1
Режим частоты кадров : Постоянный
Частота кадров : 24,000 кадра/сек
Цветовое пространство : YUV
Субдискретизация насыщенности : 4:2:0
Битовая глубина : 8 бит
Тип развёртки : Прогрессивная
Бит/(Пиксели*Кадры) : 0.224
Размер потока : 6,85 Гбайт (88%)
Заголовок : Rip by Boriy
Библиотека кодирования : x264 core 142 r2389 956c8d8
Настройки программы : cabac=1 / ref=5 / deblock=1:-3:-3 / analyse=0x3:0x113 / me=umh / subme=11 / psy=1 / psy_rd=1.00:0.00 / mixed_ref=1 / me_range=32 / chroma_me=1 / trellis=2 / 8x8dct=1 / cqm=0 / deadzone=21,11 / fast_pskip=0 / chroma_qp_offset=-2 / threads=12 / lookahead_threads=1 / sliced_threads=0 / nr=0 / decimate=0 / interlaced=0 / bluray_compat=0 / constrained_intra=0 / bframes=6 / b_pyramid=2 / b_adapt=2 / b_bias=0 / direct=3 / weightb=1 / open_gop=0 / weightp=2 / keyint=240 / keyint_min=24 / scenecut=40 / intra_refresh=0 / rc=2pass / mbtree=0 / bitrate=8302 / ratetol=1.0 / qcomp=0.60 / qpmin=0 / qpmax=69 / qpstep=4 / cplxblur=20.0 / qblur=0.5 / ip_ratio=1.40 / pb_ratio=1.30 / aq=1:0.90
Язык : English
Default : Да
Forced : Нет

Аудио #1
Идентификатор : 2
Формат : AC-3
Формат/Информация : Audio Coding 3
Расширение режима : CM (complete main)
Параметр Endianness формата : Big
Идентификатор кодека : A_AC3
Продолжительность : 2 ч. 0 м.
Вид битрейта : Постоянный
Битрейт : 448 Кбит/сек
Каналы : 6 каналов
Расположение каналов : Front: L C R, Side: L R, LFE
Частота : 48,0 КГц
Битовая глубина : 16 бит
Метод сжатия : С потерями
Размер потока : 387 Мбайт (5%)
Заголовок : Дубляж
Язык : Russian
Default : Да
Forced : Нет

Аудио #2
Идентификатор : 3
Формат : AC-3
Формат/Информация : Audio Coding 3
Расширение режима : CM (complete main)
Параметр Endianness формата : Big
Идентификатор кодека : A_AC3
Продолжительность : 2 ч. 0 м.
Вид битрейта : Постоянный
Битрейт : 448 Кбит/сек
Каналы : 6 каналов
Расположение каналов : Front: L C R, Side: L R, LFE
Частота : 48,0 КГц
Битовая глубина : 16 бит
Метод сжатия : С потерями
Размер потока : 387 Мбайт (5%)
Заголовок : Оригинал
Язык : English
Default : Нет
Forced : Нет

Текст #1
Идентификатор : 4
Формат : UTF-8
Идентификатор кодека : S_TEXT/UTF8
Идентификатор кодека/Информация : UTF-8 Plain Text
Язык : Russian
Default : Нет
Forced : Нет

Текст #2
Идентификатор : 5
Формат : UTF-8
Идентификатор кодека : S_TEXT/UTF8
Идентификатор кодека/Информация : UTF-8 Plain Text
Язык : English
Default : Нет
Forced : Нет

Меню
00:00:00.000 : :Chapter 1
00:07:14.833 : :Chapter 2
00:13:55.583 : :Chapter 3
00:25:15.833 : :Chapter 4
00:33:02.166 : :Chapter 5
00:40:18.166 : :Chapter 6
00:47:25.250 : :Chapter 7
00:58:19.416 : :Chapter 8
01:08:45.625 : :Chapter 9
01:18:35.833 : :Chapter 10
01:29:46.125 : :Chapter 11
01:38:34.541 : :Chapter 12
01:44:39.458 : :Chapter 13
01:49:44.666 : :Chapter 14
01:55:27.833 : :Chapter 15
загрузка...
Правила, инструкции, FAQ!!!
Торрент  Добавлен [13 мар 2014, 14:43] Скачать торрент
Скачать торрент
[ Размер 20.02 КБ / Просмотров 8 ]

Статус  
 
Размер  7.76 ГБ
Приватный: Нет (DHT включён)
.torrent скачан  0
Как залить торрент? | Как скачать Torrent? | Как смотреть и слушать онлайн?  


     Отправить личное сообщение
   
Страница 1 из 1
Показать сообщения за:  Поле сортировки  
Начать новую тему Ответить на тему

   Похожие торренты   Автор   Ответы   Просмотры   Последнее сообщение 
В этой теме нет новых непрочитанных сообщений. Скачать торрент Август / August: Osage County (2013) BDRip | Лицензия

в форуме Драмы, Мелодрамы, Размер: 1.37 ГБ, Здоровье: 0%

Anonymous

0
0|0

24
0

04 мар 2014, 06:44

Anonymous Перейти к последнему сообщению

В этой теме нет новых непрочитанных сообщений. Скачать торрент Август / August: Osage County (2013) BDRip 720p | Лицензия

в форуме 720p | 1080p, Размер: 7.12 ГБ, Здоровье: 0%

Anonymous

0
0|0

34
1

04 мар 2014, 09:22

Anonymous Перейти к последнему сообщению

В этой теме нет новых непрочитанных сообщений. Скачать торрент Август: Графство Осейдж / August: Osage County (Джон Уэллс / John Wells) [2013, США, Драма, HDRip-AVC] Dub

в форуме Драмы, Мелодрамы, Размер: 2.18 ГБ, Здоровье: 100%

Anonymous

0
56|19

30
1

18 май 2014, 14:11

Anonymous Перейти к последнему сообщению

В этой теме нет новых непрочитанных сообщений. Скачать торрент Август Раш / August Rush (Кирстен Шеридан / Kirsten Sheridan) [2007 г., мелодрама, драма, музыка, BDRip-AVC] MVO + original + subs (rus, eng)

в форуме 720p | 1080p, Размер: 1.63 ГБ, Здоровье: 100%

Anonymous

0
25|8

32
0

11 фев 2014, 09:17

Anonymous Перейти к последнему сообщению

В этой теме нет новых непрочитанных сообщений. Скачать торрент Проверен Август. Восьмого (Джаник Файзиев) [2012 г., Россия, драма, военный, BDRip 1080p]

в форуме Наше кино (HD Video), Размер: 8.91 ГБ, Здоровье: 100%

Anonymous

0
27|9

25
0

12 апр 2015, 15:06

Anonymous Перейти к последнему сообщению



Сейчас этот форум просматривают: нет зарегистрированных пользователей и гости: 2


Вы не можете начинать темы
Вы не можете отвечать на сообщения
Вы не можете редактировать свои сообщения
Вы не можете удалять свои сообщения
Вы не можете добавлять вложения

Перейти:  

!ВНИМАНИЕ!
 Ресурс не предоставляет электронные версии произведений, а занимается лишь коллекционированием и каталогизацией ссылок, присылаемых и публикуемых на форуме нашими читателями. Если вы являетесь правообладателем какого-либо представленного материала и не желаете чтобы ссылка на него находилась в нашем каталоге, свяжитесь с нами и мы незамедлительно удалим её. Файлы для обмена на трекере предоставлены пользователями сайта, и администрация не несёт ответственности за их содержание. Просьба не заливать файлы, защищенные авторскими правами, а также файлы нелегального содержания!