На всех торрентах на трекере установлена скидка на скачивание в размере 100 процентов(а).
 Возможность скачивания торрента НЕ зависит от ограничений при низком ратио, низком аплоаде, требуемом ратио или требуемом аплоаде.


Начать новую тему Ответить на тему
Статистика раздачи
Размер: 5.12 ГБ | Добавлен: 13 мар 2014, 14:28 | Скачали: 0
Сидеров: 0  [0 байт/сек]    Личеров: 0  [0 байт/сек]
Пред. тема | След. тема 

Автор
Сообщение

СообщениеДобавлено: 13 мар 2014, 14:28 

Название: Пропащие ребята
Оригинальное название: The Lost Boys
Год выхода: 1987
Жанр: Ужасы, фэнтези, комедия
Режиссер: Джоэл Шумахер

В ролях: Джейсон Патрик, Кори Хэйм, Дайэн Уист, Барнард Хьюз, Эдвард Херрманн, Кифер Сазерленд, Джэми Герц, Кори Фельдман, Джеймисон Ньюландер, Брук МакКартер

О фильме:
Сэм и его старший брат Майкл — американские подростки со своими типично американскими интересами. Но после того как они переехали со своей мамой в тихий городок Санта Карла, в штате Калифорния, все вокруг внезапно начинает меняться самым таинственным образом. С Майклом происходят странные перемены, и его маму сильно пугает такое неожиданное перевоплощение сына.



Страна: США / Warner Bros. Pictures
Продолжительность: 01:37:26
Перевод: Профессиональный многоголосый, профессиональный двухголосый, авторский


Качество: BDRip 720p
Видео: MPEG-4 AVC, 6500 Кбит/с, 1280x534, 23.976 кадр/с
Аудио #1: Русский (AC3, 2 ch, 192 Кбит/с) / Профессиональный двухголосый (НТВ+)
Аудио #2: Русский (AC3, 1 ch, 192 Кбит/с) / Профессиональный многоголосый (ТВ3)
Аудио #3: Русский (AC3, 2 ch, 192 Кбит/с) / Авторский одноголосый (А.Гаврилов)
Аудио #4: Английский (AC3, 6 ch, 448 Кбит/с)
Субтитры: Английские

Семпл

x264 [info]: frame I:1024 Avg QP:16.11 size:114255
x264 [info]: frame P:31989 Avg QP:18.37 size: 53991
x264 [info]: frame B:107162 Avg QP:20.38 size: 27102
x264 [info]: consecutive B-frames: 2.3% 3.4% 10.2% 21.0% 21.3% 33.0% 5.0% 2.3% 0.6% 0.6% 0.3%
x264 [info]: mb I I16..4: 2.7% 85.2% 12.1%
x264 [info]: mb P I16..4: 0.5% 25.1% 1.1% P16..4: 24.9% 33.6% 11.2% 0.0% 0.0% skip: 3.6%
x264 [info]: mb B I16..4: 0.0% 3.9% 0.1% B16..8: 38.2% 24.1% 5.1% direct:10.4% skip:18.2% L0:41.8% L1:44.4% BI:13.8%
x264 [info]: 8x8 transform intra:94.0% inter:57.6%
x264 [info]: direct mvs spatial:96.2% temporal:3.8%
x264 [info]: coded y,uvDC,uvAC intra: 97.1% 75.4% 41.7% inter: 50.2% 30.4% 6.0%
x264 [info]: i16 v,h,dc,p: 24% 16% 9% 51%
x264 [info]: i8 v,h,dc,ddl,ddr,vr,hd,vl,hu: 10% 7% 10% 10% 14% 12% 13% 11% 13%
x264 [info]: i4 v,h,dc,ddl,ddr,vr,hd,vl,hu: 16% 8% 6% 9% 14% 12% 13% 10% 13%
x264 [info]: i8c dc,h,v,p: 29% 32% 21% 18%
x264 [info]: Weighted P-Frames: Y:23.2% UV:14.8%
x264 [info]: ref P L0: 40.5% 8.4% 19.4% 8.7% 6.9% 5.2% 4.6% 2.8% 2.6% 0.8% 0.1%
x264 [info]: ref B L0: 72.3% 12.7% 6.1% 3.2% 2.3% 1.9% 1.1% 0.4%
x264 [info]: ref B L1: 91.6% 8.4%
x264 [info]: kb/s:6497.40

Format : Matroska
Format version : Version 4 / Version 2
File size : 5.12 GiB
Duration : 1h 37mn
Overall bit rate : 7 524 Kbps
Movie name : -=MediaClub - Odessit=-
Encoded date : UTC 2014-03-13 08:20:25
Writing application : mkvmerge v6.8.0 ('Theme for Great Cities') 64bit built on Mar 2 2014 21:34:26
Writing library : libebml v1.3.0 + libmatroska v1.4.1

Video
ID : 1
Format : AVC
Format/Info : Advanced Video Codec
Format profile : High@L4.1
Format settings, CABAC : Yes
Format settings, ReFrames : 9 frames
Codec ID : V_MPEG4/ISO/AVC
Duration : 1h 37mn
Bit rate : 6 500 Kbps
Width : 1 280 pixels
Height : 534 pixels
Display aspect ratio : 2.40:1
Frame rate : 23.976 fps
Color space : YUV
Chroma subsampling : 4:2:0
Bit depth : 8 bits
Scan type : Progressive
Bits/(Pixel*Frame) : 0.397
Stream size : 4.32 GiB (84%)
Writing library : x264 core 142 r2389+41 02cb608 tMod [8-bit@4:2:0 X86_64]
Encoding settings : cabac=1 / ref=9 / deblock=1:-3:-3 / analyse=0x3:0x113 / me=umh / subme=11 / psy=1 / fade_compensate=0.00 / psy_rd=0.95:0.00 / mixed_ref=1 / me_range=64 / chroma_me=1 / trellis=2 / 8x8dct=1 / cqm=0 / deadzone=21,11 / fast_pskip=0 / chroma_qp_offset=-2 / threads=6 / lookahead_threads=1 / sliced_threads=0 / nr=0 / decimate=0 / interlaced=0 / bluray_compat=0 / constrained_intra=0 / fgo=0 / bframes=10 / b_pyramid=2 / b_adapt=2 / b_bias=0 / direct=3 / weightb=1 / open_gop=0 / weightp=2 / keyint=240 / keyint_min=23 / scenecut=40 / intra_refresh=0 / rc=2pass / mbtree=0 / bitrate=6500 / ratetol=1.0 / qcomp=0.60 / qpmin=0:0:0 / qpmax=69:69:69 / qpstep=4 / cplxblur=20.0 / qblur=0.5 / ip_ratio=1.40 / pb_ratio=1.30 / aq=2:0.80 / aq-sensitivity=10.00 / aq-factor=1.00:1.00:1.00 / aq2=0 / aq3=0
Language : English

Audio #1
ID : 2
Format : AC-3
Format/Info : Audio Coding 3
Mode extension : CM (complete main)
Codec ID : A_AC3
Duration : 1h 37mn
Bit rate mode : Constant
Bit rate : 192 Kbps
Channel(s) : 2 channels
Channel positions : Front: L R
Sampling rate : 48.0 KHz
Bit depth : 16 bits
Compression mode : Lossy
Stream size : 134 MiB (3%)
Title : профессиональный (двухголосый, закадровый) НТВ+
Language : Russian

Audio #2
ID : 3
Format : AC-3
Format/Info : Audio Coding 3
Mode extension : CM (complete main)
Codec ID : A_AC3
Duration : 1h 37mn
Bit rate mode : Constant
Bit rate : 192 Kbps
Channel(s) : 1 channel
Channel positions : Front: C
Sampling rate : 48.0 KHz
Bit depth : 16 bits
Compression mode : Lossy
Stream size : 134 MiB (3%)
Title : Профессиональный (многоголосый, закадровый) ТВ3
Language : Russian

Audio #3
ID : 4
Format : AC-3
Format/Info : Audio Coding 3
Mode extension : CM (complete main)
Codec ID : A_AC3
Duration : 1h 37mn
Bit rate mode : Constant
Bit rate : 192 Kbps
Channel(s) : 2 channels
Channel positions : Front: L R
Sampling rate : 48.0 KHz
Bit depth : 16 bits
Compression mode : Lossy
Stream size : 134 MiB (3%)
Title : авторский (одноголосый, закадровый) А.Гаврилов
Language : Russian

Audio #4
ID : 5
Format : AC-3
Format/Info : Audio Coding 3
Mode extension : CM (complete main)
Codec ID : A_AC3
Duration : 1h 37mn
Bit rate mode : Constant
Bit rate : 448 Kbps
Channel(s) : 6 channels
Channel positions : Front: L C R, Side: L R, LFE
Sampling rate : 48.0 KHz
Bit depth : 16 bits
Compression mode : Lossy
Stream size : 312 MiB (6%)
Language : English

Text
ID : 6
Format : UTF-8
Codec ID : S_TEXT/UTF8
Codec ID/Info : UTF-8 Plain Text
Language : English

Menu
00:00:00.000 : en:Boardwalk Prey
00:03:09.022 : en:Welcome to Santa Carla
00:06:23.549 : en:Arrival at Grandpa's
00:09:38.411 : en:First Night
00:13:56.335 : en:The Frog Brothers
00:15:43.275 : en:Deadly Interruption
00:17:06.859 : en:Higher Purpose
00:19:00.305 : en:The Challenge
00:21:17.276 : en:Ride to Hudson's Bluff
00:23:43.922 : en:Feeding Time at the Lair
00:27:54.005 : en:One of Us
00:30:21.820 : en:Railroad Bridge
00:35:11.609 : en:Michael's Transformation
00:41:38.496 : en:Uncontrollable Urge to Fly
00:46:47.471 : en:Max's Visitors
00:47:59.543 : en:Lovers
00:50:51.381 : en:Behind the Sunglasses
00:52:10.627 : en:Max's Hounds of Hell
00:54:41.111 : en:Dinner with Max and the Frogs
00:59:36.906 : en:Time to Join the Club
01:03:26.803 : en:Harder to Resist
01:06:09.799 : en:Hunting the Undead
01:12:15.831 : en:On Their Own
01:14:46.982 : en:Preparations for Battle
01:18:10.519 : en:Under Seige
01:20:06.468 : en:Garlic Bloodbath
01:21:30.218 : en:Death By Stereo
01:23:20.829 : en:Attack of Eddie Munster
01:24:47.415 : en:Michael vs. David
01:27:31.246 : en:Head Bloodsucker
01:30:10.071 : en:All the Damn Vampires
01:32:58.239 : en:End Credits



Релиз от: |
загрузка...
Правила, инструкции, FAQ!!!
Торрент  Добавлен [13 мар 2014, 14:28] Скачать торрент
Скачать торрент
[ Размер 26.12 КБ / Просмотров 5 ]

Статус  
 
Размер  5.12 ГБ
Приватный: Нет (DHT включён)
.torrent скачан  0
Как залить торрент? | Как скачать Torrent? | Как смотреть и слушать онлайн?  


     Отправить личное сообщение
   
Страница 1 из 1
Показать сообщения за:  Поле сортировки  
Начать новую тему Ответить на тему

   Похожие торренты   Автор   Ответы   Просмотры   Последнее сообщение 
В этой теме нет новых непрочитанных сообщений. Скачать торрент Пропащие ребята 2: Племя / Lost Boys: The Tribe (2008) BDRip

в форуме Ужасы, Размер: 2.06 ГБ, Здоровье: 0%

Anonymous

0
0|0

46
1

27 фев 2014, 08:48

Anonymous Перейти к последнему сообщению

В этой теме нет новых непрочитанных сообщений. Скачать торрент Проверен Backstreet Boys - In A World Like This. Japan Tour 2013 (2014) BDRip 720p

в форуме Концерты (HD-Video), Размер: 7.23 ГБ, Здоровье: 100%

Anonymous

0
4|0

79
1

21 май 2014, 13:30

Anonymous Перейти к последнему сообщению

В этой теме нет новых непрочитанных сообщений. Скачать торрент Проверен The Beach Boys - Live in Concert: 50th Anniversary [2012, Rock, BDRip 720p]

в форуме Концерты (HD-Video), Размер: 4.54 ГБ, Здоровье: 100%

Гость

0
5|2

52
2

03 май 2015, 22:20

Гость Перейти к последнему сообщению

В этой теме нет новых непрочитанных сообщений. Скачать торрент Проверен Царь скорпионов 4: Утерянный трон / The Scorpion King: The Lost Throne (2015) BDRip 720p | BaiBaKo

в форуме 720p | 1080p, Размер: 6.38 ГБ, Здоровье: 100%

Гость

0
473|382

43
2892

10 янв 2015, 12:56

Гость Перейти к последнему сообщению

В этой теме нет новых непрочитанных сообщений. Скачать торрент Индиана Джонс: В поисках утраченного ковчега / Raiders of the Lost Ark (Стивен Спилберг / Steven Spielberg) [1981, боевик, приключения, BDRip 720p]

в форуме 720p | 1080p, Размер: 10.07 ГБ, Здоровье: 100%

Anonymous

0
8|2

60
0

25 фев 2014, 22:42

Anonymous Перейти к последнему сообщению



Сейчас этот форум просматривают: нет зарегистрированных пользователей и гости: 2


Вы не можете начинать темы
Вы не можете отвечать на сообщения
Вы не можете редактировать свои сообщения
Вы не можете удалять свои сообщения
Вы не можете добавлять вложения

Перейти:  

!ВНИМАНИЕ!
 Ресурс не предоставляет электронные версии произведений, а занимается лишь коллекционированием и каталогизацией ссылок, присылаемых и публикуемых на форуме нашими читателями. Если вы являетесь правообладателем какого-либо представленного материала и не желаете чтобы ссылка на него находилась в нашем каталоге, свяжитесь с нами и мы незамедлительно удалим её. Файлы для обмена на трекере предоставлены пользователями сайта, и администрация не несёт ответственности за их содержание. Просьба не заливать файлы, защищенные авторскими правами, а также файлы нелегального содержания!