На всех торрентах на трекере установлена скидка на скачивание в размере 100 процентов(а).
 Возможность скачивания торрента НЕ зависит от ограничений при низком ратио, низком аплоаде, требуемом ратио или требуемом аплоаде.


Начать новую тему Ответить на тему
Статистика раздачи
Размер: 2.18 ГБ | Добавлен: 13 мар 2014, 09:28 | Скачали: 0
Сидеров: 1  [0 байт/сек]    Личеров: 0  [0 байт/сек]
Пред. тема | След. тема 

Автор
Сообщение

СообщениеДобавлено: 13 мар 2014, 09:28 

Название: Осенняя сказка
Оригинальное название: Conte d'automne
Год выхода: 1998
Жанр: драма, мелодрама
Режиссер: Эрик Ромер

В ролях: Мари Ривьер, Беатрис Роман, Ален Либоль, Дидье Сандр, Алексия Порталь, Стефани Дармон, Аурелия Алькаис, Маттьё Даветт, Ив Алькаис...

О фильме: Магали сорок пять лет, по профессии она винодел, а по семейному положению вдова. После того, как взрослые дети покинули родной дом, ей немного одиноко, и ее лучшая подруга, Изабель, решает подыскать для нее нового мужа. В тайне от Магали Изабель размещает в местной газете объявление и находит приятную кандидатуру по имени Жеральд.

В то же самое время Розин (девушка сына Магали) вознамерилась познакомить потенциальную свекровь со своим бывшим учителем философии (и заодно экс-любовником) Этьеном. В итоге получается так, что на свадьбе дочери Изабель ни о чем не подозревающая Магали знакомится сразу с обоими мужчинами…



Страна: Франция
Продолжительность: 01:51:21
Перевод: Профессиональный (многоголосый закадровый)


Кодек: x.264
Качество: BDRip-AVC
Видео: 1024x768 (4:3), 24 fps, 2581 kbps, 0.137 bit/pixel
Звук: 48 kHz, AC3 Dolby Digital, 2 ch, ~224.00 kbps
Субтитры: Русские, Английские (отключаемые)

&

Общее
Уникальный идентификатор : 183867216307571353775623004025998320297 (0x8A5389AB2654E969B8E2B6986CA0A2A9)
Полное имя : D:Conte d'automne.1998.BDRip-AVC.mkv
Формат : Matroska
Версия формата : Version 4 / Version 2
Размер файла : 2,18 Гбайт
Продолжительность : 1 ч. 51 м.
Общий поток : 2807 Кбит/сек
Название фильма : Осенняя сказка / Conte d'automne (1998) BDRip-AVC rip by Rulya74
Дата кодирования : UTC 2014-03-12 20:48:49
Программа кодирования : mkvmerge v6.5.0 ('Isn't she lovely') built on Oct 20 2013 12:50:05
Библиотека кодирования : libebml v1.3.0 + libmatroska v1.4.1

Видео
Идентификатор : 1
Формат : AVC
Формат/Информация : Advanced Video Codec
Профиль формата : High@L4.1
Параметр CABAC формата : Да
Параметр ReFrames формата : 12 кадров
Идентификатор кодека : V_MPEG4/ISO/AVC
Продолжительность : 1 ч. 51 м.
Битрейт : 2581 Кбит/сек
Ширина : 1024 пикселя
Высота : 768 пикселей
Соотношение сторон : 4:3
Режим частоты кадров : Постоянный
Частота кадров : 24,000 кадра/сек
Цветовое пространство : YUV
Субдискретизация насыщенности : 4:2:0
Битовая глубина : 8 бит
Тип развёртки : Прогрессивная
Бит/(Пиксели*Кадры) : 0.137
Размер потока : 1,97 Гбайт (90%)
Библиотека кодирования : x264 core 130 r2273 b3065e6
Настройки программы : cabac=1 / ref=12 / deblock=1:-2:-1 / analyse=0x3:0x112 / me=umh / subme=11 / psy=1 / psy_rd=1.00:0.10 / mixed_ref=1 / me_range=48 / chroma_me=1 / trellis=2 / 8x8dct=1 / cqm=0 / deadzone=21,11 / fast_pskip=0 / chroma_qp_offset=-3 / threads=4 / lookahead_threads=1 / sliced_threads=0 / nr=0 / decimate=1 / interlaced=0 / bluray_compat=0 / constrained_intra=0 / bframes=6 / b_pyramid=2 / b_adapt=2 / b_bias=0 / direct=3 / weightb=1 / open_gop=0 / weightp=2 / keyint=250 / keyint_min=24 / scenecut=40 / intra_refresh=0 / rc_lookahead=50 / rc=2pass / mbtree=1 / bitrate=2581 / ratetol=1.0 / qcomp=0.60 / qpmin=0 / qpmax=69 / qpstep=4 / cplxblur=20.0 / qblur=0.5 / ip_ratio=1.40 / aq=1:1.00
Default : Да
Forced : Нет

Аудио
Идентификатор : 2
Формат : AC-3
Формат/Информация : Audio Coding 3
Расширение режима : CM (complete main)
Параметр Endianness формата : Big
Идентификатор кодека : A_AC3
Продолжительность : 1 ч. 51 м.
Вид битрейта : Постоянный
Битрейт : 224 Кбит/сек
Каналы : 2 канала
Расположение каналов : Front: L R
Частота : 48,0 КГц
Битовая глубина : 16 бит
Метод сжатия : С потерями
Размер потока : 178 Мбайт (8%)
Заголовок : Профессиональный (многоголосый закадровый)
Язык : Russian
Default : Да
Forced : Нет

Текст #1
Идентификатор : 3
Формат : UTF-8
Идентификатор кодека : S_TEXT/UTF8
Идентификатор кодека/Информация : UTF-8 Plain Text
Язык : Russian
Default : Да
Forced : Нет

Текст #2
Идентификатор : 4
Формат : UTF-8
Идентификатор кодека : S_TEXT/UTF8
Идентификатор кодека/Информация : UTF-8 Plain Text
Язык : English
Default : Нет
Forced : Нет

Меню
00:00:00.000 : fr:01. Générique
00:05:48.365 : fr:02. A la vigne
00:17:45.782 : fr:03. L'ordre des choses
00:25:20.698 : fr:04. Librairie des 5 continents
00:31:27.282 : fr:05. Le temps des vendanges
00:36:28.573 : fr:06. Montélimar
00:44:55.365 : fr:07. Rendez-vous à Pont-Saint-Esprit
00:58:46.615 : fr:08. Bar le Garden
01:08:05.823 : fr:09. Le mariage
01:20:34.448 : fr:10. En aparté
01:30:50.490 : fr:11. Sur la route
01:40:35.698 : fr:12. Un type très bien

загрузка...
Правила, инструкции, FAQ!!!
Торрент  Добавлен [13 мар 2014, 09:28] Скачать торрент
Скачать торрент
[ Размер 11.42 КБ / Просмотров 8 ]

Статус  
 
Размер  2.18 ГБ
Приватный: Нет (DHT включён)
.torrent скачан  0
Как залить торрент? | Как скачать Torrent? | Как смотреть и слушать онлайн?  


     Отправить личное сообщение
   
Страница 1 из 1
Показать сообщения за:  Поле сортировки  
Начать новую тему Ответить на тему

   Похожие торренты   Автор   Ответы   Просмотры   Последнее сообщение 
В этой теме нет новых непрочитанных сообщений. Скачать торрент Проверен (Rock) [CD] Steve Conte (Michael Monroe, New York Dolls) - The Steve Conte NYC Album - 2014, FLAC (tracks+.cue), lossless

в форуме Classic Rock & Hard Rock, Размер: 212.4 МБ, Здоровье: 100%

Anonymous

0
1|0

0
0

03 сен 2016, 17:54

Anonymous Перейти к последнему сообщению

В этой теме нет новых непрочитанных сообщений. Скачать торрент Steve Conte - The Steve Conte NYC Album (2013) [FLAC|Lossless]<Rock>

в форуме Рок, Панк, Метал, Альтернатива, Размер: 212.4 МБ, Здоровье: ???%

Anonymous

0
0|4

34
0

16 мар 2014, 00:16

Anonymous Перейти к последнему сообщению

В этой теме нет новых непрочитанных сообщений. Скачать торрент Проверен (Rock) Steve Conte - The Steve Conte NYC Album - 2014, MP3, 320 kbps

в форуме Classic Rock & Hard Rock, Размер: 72.19 МБ, Здоровье: 0%

Anonymous

0
0|0

0
0

13 ноя 2016, 12:49

Anonymous Перейти к последнему сообщению

В этой теме нет новых непрочитанных сообщений. Скачать торрент Проверен Сказка. Есть (Елизавета Соломина, Константин Статский, Александр Баршак) [2012, Россия, приключения, сказка, BDRip 720p] Original Rus

в форуме Наше кино (HD Video), Размер: 4.86 ГБ, Здоровье: 100%

Гость

0
1|0

33
0

12 апр 2015, 11:07

Гость Перейти к последнему сообщению

В этой теме нет новых непрочитанных сообщений. Скачать торрент Проверен (Rock) Steve Conte & The Crazy Truth -"Steve Conte & The Crazy Truth" - 2009, MP3 (tracks), 320 kbps

в форуме Classic Rock & Hard Rock, Размер: 84.06 МБ, Здоровье: 0%

Anonymous

0
0|0

0
0

14 ноя 2016, 20:35

Anonymous Перейти к последнему сообщению



Сейчас этот форум просматривают: нет зарегистрированных пользователей и гости: 1


Вы не можете начинать темы
Вы не можете отвечать на сообщения
Вы не можете редактировать свои сообщения
Вы не можете удалять свои сообщения
Вы не можете добавлять вложения

Перейти:  

!ВНИМАНИЕ!
 Ресурс не предоставляет электронные версии произведений, а занимается лишь коллекционированием и каталогизацией ссылок, присылаемых и публикуемых на форуме нашими читателями. Если вы являетесь правообладателем какого-либо представленного материала и не желаете чтобы ссылка на него находилась в нашем каталоге, свяжитесь с нами и мы незамедлительно удалим её. Файлы для обмена на трекере предоставлены пользователями сайта, и администрация не несёт ответственности за их содержание. Просьба не заливать файлы, защищенные авторскими правами, а также файлы нелегального содержания!