На всех торрентах на трекере установлена скидка на скачивание в размере 100 процентов(а).
 Возможность скачивания торрента НЕ зависит от ограничений при низком ратио, низком аплоаде, требуемом ратио или требуемом аплоаде.


Начать новую тему Ответить на тему
Статистика раздачи
Размер: 7.76 ГБ | Добавлен: 12 мар 2014, 20:57 | Скачали: 392
Сидеров: 48  [0 байт/сек]    Личеров: 3  [0 байт/сек]
Пред. тема | След. тема 

Автор
Сообщение

СообщениеДобавлено: 12 мар 2014, 20:57 

Название: Сталинград
Год выхода: 2013
Жанр: военный, драма, боевик
Режиссер: Фёдор Бондарчук

В ролях: Мария Смольникова, Янина Студилина, Пётр Фёдоров, Томас Кречман, Сергей Бондарчук, Дмитрий Лысенков, Андрей Смоляков, Алексей Барабаш, Олег Волку, Хайнер Лаутербах

О фильме: 1942-й год. Сталинград. Советские войска планируют контрнаступление на немецкие части, занявшие правый берег Волги. Наступление сорвано. Лишь разведчикам под командованием капитана Громова удается перебраться на другой берег и закрепиться в одном из домов. Им дан приказ удержать его любой ценой. Кроме нескольких чудом уцелевших советских солдат они находят в доме его последнюю жительницу — 19-летнюю Катю.

Приказ отбить дом, захваченный противником, получает немецкий офицер Кан. На фоне одного из самых кровопролитных сражений в истории человечества разворачиваются истории любви и драматического противостояния характеров.



Выпущено: Арт Пикчерс Студия, Нон-стоп Продакшн
Продолжительность: 02:10:41
Перевод: Оригинал (лицензия)


Кодек: x264
Качество: BDRip (источник: Blu-ray Disc)
Видео: 1920x788 (2,40:1), 24 fps, 7860 kbps
Аудио: AC-3, 6 ch, 640 kbps
Скачать: сэмпл

Скриншоты

Общее
Уникальный идентификатор : 254630126295536388635529677096635043002 (0xBF8FFA7ED10C96EA9A162788E6238CBA)
Полное имя : Stalingrad.2013.BDRip.1080p.Rus.mkv
Формат : Matroska
Версия формата : Version 2
Размер файла : 7,76 Гбайт
Продолжительность : 2 ч. 10 м.
Общий поток : 8500 Кбит/сек
Название фильма : Сталинград (2013)
Дата кодирования : UTC 2013-12-04 17:54:05
Программа кодирования : mkvmerge v5.8.0 ('No Sleep / Pillow') built on Sep 2 2012 15:37:04
Библиотека кодирования : libebml v1.2.3 + libmatroska v1.3.0

Видео
Идентификатор : 1
Формат : AVC
Формат/Информация : Advanced Video Codec
Профиль формата : High@L4.1
Параметр CABAC формата : Да
Параметр ReFrames формата : 5 кадров
Идентификатор кодека : V_MPEG4/ISO/AVC
Продолжительность : 2 ч. 10 м.
Битрейт : 7860 Кбит/сек
Ширина : 1920 пикселей
Высота : 788 пикселей
Соотношение сторон : 2,40:1
Частота кадров : 24,000 кадра/сек
Цветовое пространство : YUV
Субдискретизация насыщенности : 4:2:0
Битовая глубина : 8 бит
Тип развёртки : Прогрессивная
Бит/(Пиксели*Кадры) : 0.216
Размер потока : 7,02 Гбайт (90%)
Заголовок : Release by AlexKa
Библиотека кодирования : x264 core 140 r2377 1ca7bb9
Настройки программы : cabac=1 / ref=5 / deblock=1:-3:-3 / analyse=0x3:0x133 / me=umh / subme=11 / psy=1 / psy_rd=1.00:0.00 / mixed_ref=1 / me_range=32 / chroma_me=1 / trellis=2 / 8x8dct=1 / cqm=0 / deadzone=21,11 / fast_pskip=0 / chroma_qp_offset=-2 / threads=12 / lookahead_threads=2 / sliced_threads=0 / nr=0 / decimate=0 / interlaced=0 / bluray_compat=0 / constrained_intra=0 / bframes=7 / b_pyramid=2 / b_adapt=2 / b_bias=0 / direct=3 / weightb=1 / open_gop=0 / weightp=2 / keyint=240 / keyint_min=24 / scenecut=40 / intra_refresh=0 / rc=2pass / mbtree=0 / bitrate=7860 / ratetol=1.0 / qcomp=0.60 / qpmin=0 / qpmax=69 / qpstep=4 / cplxblur=20.0 / qblur=0.5 / ip_ratio=1.40 / pb_ratio=1.30 / aq=1:0.90
Язык : Russian

Аудио
Идентификатор : 2
Формат : AC-3
Формат/Информация : Audio Coding 3
Расширение режима : CM (complete main)
Идентификатор кодека : A_AC3
Продолжительность : 2 ч. 10 м.
Вид битрейта : Постоянный
Битрейт : 640 Кбит/сек
Каналы : 6 каналов
Расположение каналов : Front: L C R, Side: L R, LFE
Частота : 48,0 КГц
Битовая глубина : 16 бит
Метод сжатия : С потерями
Размер потока : 598 Мбайт (8%)
Заголовок : Rus
Язык : Russian

Меню
00:00:00.000 : :Chapter 01
00:00:04.000 : :Chapter 02
00:15:40.458 : :Chapter 03
00:32:01.416 : :Chapter 04
00:46:07.125 : :Chapter 05
01:03:22.250 : :Chapter 06
01:20:44.000 : :Chapter 07
01:35:51.416 : :Chapter 08
01:51:09.125 : :Chapter 09
x264 [info]: frame I:1265 Avg QP:13.00 size:211494
x264 [info]: frame P:39352 Avg QP:15.28 size: 80646
x264 [info]: frame B:147567 Avg QP:17.35 size: 28873
x264 [info]: consecutive B-frames: 1.4% 2.2% 7.0% 17.3% 17.1% 49.8% 4.6% 0.6%
загрузка...
Правила, инструкции, FAQ!!!
Торрент  Добавлен [12 мар 2014, 20:57] Скачать торрент
Скачать торрент
[ Размер 39.36 КБ / Просмотров 4 ]

Статус  
 
Размер  7.76 ГБ
Приватный: Нет (DHT включён)
.torrent скачан  392
Как залить торрент? | Как скачать Torrent? | Как смотреть и слушать онлайн?  


     Отправить личное сообщение
   
Страница 1 из 1
Показать сообщения за:  Поле сортировки  
Начать новую тему Ответить на тему

   Похожие торренты   Автор   Ответы   Просмотры   Последнее сообщение 
В этой теме нет новых непрочитанных сообщений. Скачать торрент Сталинград (2013) BDRip 720p

в форуме 720p | 1080p, Размер: 5.37 ГБ, Здоровье: 100%

Anonymous

0
11|0

23
42

08 апр 2014, 12:21

Anonymous Перейти к последнему сообщению

В этой теме нет новых непрочитанных сообщений. Скачать торрент Сталинград (2013) BDRip-AVC от HELLYWOOD | Лицензия

в форуме Военные, Размер: 1.46 ГБ, Здоровье: 100%

Anonymous

0
161|3

52
164

12 мар 2014, 20:46

Anonymous Перейти к последнему сообщению

В этой теме нет новых непрочитанных сообщений. Скачать торрент Проверен Сталинград (Фёдор Бондарчук) [2013, Россия, военный, драма, боевик, BDRip 720p]

в форуме Наше кино (HD Video), Размер: 4.4 ГБ, Здоровье: 100%

Anonymous

0
34|11

120
1

12 апр 2015, 15:08

Anonymous Перейти к последнему сообщению

В этой теме нет новых непрочитанных сообщений. Скачать торрент Проверен Сталинград (Фёдор Бондарчук) [2013, Россия, военный, драма, боевик, BDRip, 480p]

в форуме Фильмы для iPod, iPhone, iPad, Размер: 1.49 ГБ, Здоровье: 100%

Гость

0
54|18

25
0

14 май 2015, 00:19

Гость Перейти к последнему сообщению

В этой теме нет новых непрочитанных сообщений. Скачать торрент Проверен Сталинград (Фёдор Бондарчук) [2013, Россия, боевик, драма, военный, Blu-ray disc]

в форуме Наше кино (HD Video), Размер: 32.79 ГБ, Здоровье: 100%

Anonymous

0
18|6

20
0

12 апр 2015, 15:05

Anonymous Перейти к последнему сообщению



Сейчас этот форум просматривают: нет зарегистрированных пользователей и гости: 1


Вы не можете начинать темы
Вы не можете отвечать на сообщения
Вы не можете редактировать свои сообщения
Вы не можете удалять свои сообщения
Вы не можете добавлять вложения

Перейти:  

!ВНИМАНИЕ!
 Ресурс не предоставляет электронные версии произведений, а занимается лишь коллекционированием и каталогизацией ссылок, присылаемых и публикуемых на форуме нашими читателями. Если вы являетесь правообладателем какого-либо представленного материала и не желаете чтобы ссылка на него находилась в нашем каталоге, свяжитесь с нами и мы незамедлительно удалим её. Файлы для обмена на трекере предоставлены пользователями сайта, и администрация не несёт ответственности за их содержание. Просьба не заливать файлы, защищенные авторскими правами, а также файлы нелегального содержания!