На всех торрентах на трекере установлена скидка на скачивание в размере 100 процентов(а).
 Возможность скачивания торрента НЕ зависит от ограничений при низком ратио, низком аплоаде, требуемом ратио или требуемом аплоаде.


Начать новую тему Ответить на тему
Статистика раздачи
Размер: 2.18 ГБ | Добавлен: 25 дек 2012, 23:03 | Скачали: 452
Сидеров: 187  [0 байт/сек]    Личеров: 25  [0 байт/сек]
Пред. тема | След. тема 

Автор
Сообщение

СообщениеДобавлено: 25 дек 2012, 23:03 

Информация о фильме
Название: Святые из Бундока
Оригинальное название: The Boondock Saints
Год выхода: 1999
Жанр: боевик, триллер, драма, комедия, криминал
Режиссер: Трой Даффи

В ролях: Уиллем Дэфоу, Шон Пэтрик Флэнери, Норман Ридус, Дэвид Делла Рокко, Билли Коннолли, Дэвид Ферри, Брайан Мэхоуни, Боб Марли, Ричард Фицпэтрик, Уильям Янг, Роберт Пембертон, Билл Крэйг

О фильме: Чего только не бывает на свете! Два обычных ирландских парня, братья Коннор и Мерфи, преспокойно жили и работали в своем родном Бостоне, пока в один прекрасный день на них не снизошло озарение: сам Бог послал их на землю с особой миссией, наделив святой силой, чтобы очистить мир от зла. И братья взялись за дело со всей серьезностью, присущей ирландцам…

Вскоре местную мафию охватывает настоящая паника — ведь методы «святых» не отличаются особой гуманностью, зато оказались очень эффективными — кровь полилась рекой!

Массовый отстрел мафиози не смог не привлечь внимания ФБР. Спецагент Пол Смекер, ведущий расследование, попадает в непростую ситуацию: служебный долг требует пресечь деятельность «святых братьев», однако в душе он не только сочувствует им, но даже готов присоединится к исполнителям «священной» миссии…



Страна: Канада, США
Продолжительность: 01:48:27
Перевод: Профессиональный (Многоголосый закадровый) (Tycoon), Профессиональный (Многоголосый закадровый) (С приложения к журналу Total DVD №10 2006), Авторский одноголосый закадровый (Дмитрий Пучков aka Гоблин), Оригинал (Английский)

Файл
Кодек: h.264
Качество: BDRip-AVC
Видео: 1024x436 (2,35:1), 23.976 fps, 1658 kbps, 0.155 bit/pixel
Аудио #1: 48 kHz, AC3 5.1, 384.00 kbps (Tycoon)
Аудио #2: 48 kHz, AC3 5.1, 320.00 kbps (MVO)
Аудио #3: 48 kHz, AC3 5.1, 320.00 kbps (Гоблин)
Аудио #4: 48 kHz, AC3 2.0, 192.00 kbps (Оригинал)
Субтитры: Русские, Английские (отключаемые)

&

Общее
Уникальный идентификатор : 220896766448908008778348060976086461233 (0xA62F2B7242AED18DBA07B8DF4EB72B31)
Полное имя : D:The Boondock Saints.1999.BDRip-AVC.mkv
Формат : Matroska
Версия формата : Version 4 / Version 2
Размер файла : 2,18 Гбайт
Продолжительность : 1 ч. 48 м.
Общий поток : 2876 Кбит/сек
Название фильма : Святые из Бундока / The Boondock Saints (1999) BDRip-AVC rip by Rulya74
Дата кодирования : UTC 2010-02-22 21:41:31
Программа кодирования : mkvmerge v5.9.0 ('On The Loose') built on Dec 9 2012 15:37:01
Библиотека кодирования : libebml v1.3.0 + libmatroska v1.4.0

Видео
Идентификатор : 1
Формат : AVC
Формат/Информация : Advanced Video Codec
Профиль формата : High@L4.1
Параметр CABAC формата : Да
Параметр ReFrames формата : 13 кадров
Идентификатор кодека : V_MPEG4/ISO/AVC
Продолжительность : 1 ч. 48 м.
Битрейт : 1658 Кбит/сек
Ширина : 1024 пикселя
Высота : 436 пикселей
Соотношение сторон : 2,35:1
Частота кадров : 23,976 кадра/сек
Цветовое пространство : YUV
Субдискретизация насыщенности : 4:2:0
Битовая глубина : 8 бит
Тип развёртки : Прогрессивная
Бит/(Пиксели*Кадры) : 0.155
Размер потока : 1,21 Гбайт (56%)
Библиотека кодирования : x264 core 129 r2230 1cffe9f
Настройки программы : cabac=1 / ref=13 / deblock=1:-3:-2 / analyse=0x3:0x133 / me=umh / subme=10 / psy=1 / psy_rd=1.12:0.08 / mixed_ref=1 / me_range=48 / chroma_me=1 / trellis=2 / 8x8dct=1 / cqm=0 / deadzone=21,11 / fast_pskip=0 / chroma_qp_offset=-3 / threads=2 / lookahead_threads=1 / sliced_threads=0 / nr=0 / decimate=1 / interlaced=0 / bluray_compat=0 / constrained_intra=0 / bframes=9 / b_pyramid=2 / b_adapt=2 / b_bias=0 / direct=3 / weightb=1 / open_gop=0 / weightp=2 / keyint=240 / keyint_min=23 / scenecut=40 / intra_refresh=0 / rc_lookahead=40 / rc=2pass / mbtree=1 / bitrate=1658 / ratetol=1.0 / qcomp=0.60 / qpmin=10 / qpmax=51 / qpstep=4 / cplxblur=20.0 / qblur=0.5 / ip_ratio=1.40 / aq=2:1.00
Default : Да
Forced : Нет

Аудио #1
Идентификатор : 2
Формат : AC-3
Формат/Информация : Audio Coding 3
Расширение режима : CM (complete main)
Идентификатор кодека : A_AC3
Продолжительность : 1 ч. 48 м.
Вид битрейта : Постоянный
Битрейт : 384 Кбит/сек
Каналы : 6 каналов
Расположение каналов : Front: L C R, Side: L R, LFE
Частота : 48,0 КГц
Битовая глубина : 16 бит
Метод сжатия : С потерями
Размер потока : 298 Мбайт (13%)
Заголовок : Многоголосый закадровый (Tycoon)
Язык : Russian
Default : Да
Forced : Нет

Аудио #2
Идентификатор : 3
Формат : AC-3
Формат/Информация : Audio Coding 3
Расширение режима : CM (complete main)
Идентификатор кодека : A_AC3
Продолжительность : 1 ч. 48 м.
Вид битрейта : Постоянный
Битрейт : 320 Кбит/сек
Каналы : 6 каналов
Расположение каналов : Front: L C R, Side: L R, LFE
Частота : 48,0 КГц
Битовая глубина : 16 бит
Метод сжатия : С потерями
Размер потока : 248 Мбайт (11%)
Заголовок : Многоголосый закадровый (С приложения к журналу Total DVD №10 2006)
Язык : Russian
Default : Нет
Forced : Нет

Аудио #3
Идентификатор : 4
Формат : AC-3
Формат/Информация : Audio Coding 3
Расширение режима : CM (complete main)
Идентификатор кодека : A_AC3
Продолжительность : 1 ч. 48 м.
Вид битрейта : Постоянный
Битрейт : 320 Кбит/сек
Каналы : 6 каналов
Расположение каналов : Front: L C R, Side: L R, LFE
Частота : 48,0 КГц
Битовая глубина : 16 бит
Метод сжатия : С потерями
Размер потока : 248 Мбайт (11%)
Заголовок : Авторский одноголосый (Дмитрий Пучков aka Гоблин)
Язык : Russian
Default : Нет
Forced : Нет

Аудио #4
Идентификатор : 5
Формат : AC-3
Формат/Информация : Audio Coding 3
Расширение режима : CM (complete main)
Идентификатор кодека : A_AC3
Продолжительность : 1 ч. 48 м.
Вид битрейта : Постоянный
Битрейт : 192 Кбит/сек
Каналы : 2 канала
Расположение каналов : Front: L R
Частота : 48,0 КГц
Битовая глубина : 16 бит
Метод сжатия : С потерями
Размер потока : 149 Мбайт (7%)
Заголовок : Оригинал
Язык : English
Default : Нет
Forced : Нет

Текст #1
Идентификатор : 6
Формат : UTF-8
Идентификатор кодека : S_TEXT/UTF8
Идентификатор кодека/Информация : UTF-8 Plain Text
Язык : Russian
Default : Нет
Forced : Нет

Текст #2
Идентификатор : 7
Формат : UTF-8
Идентификатор кодека : S_TEXT/UTF8
Идентификатор кодека/Информация : UTF-8 Plain Text
Язык : English
Default : Нет
Forced : Нет


загрузка...
Правила, инструкции, FAQ!!!
Торрент  Добавлен [25 дек 2012, 23:03] Скачать торрент
Скачать торрент
[ Размер 11.31 КБ / Просмотров 15 ]

Статус
Проверен 
 
Размер  2.18 ГБ
Приватный: Нет (DHT включён)
.torrent скачан  452
Как залить торрент? | Как скачать Torrent? | Как смотреть и слушать онлайн?  


     Отправить личное сообщение
   
Страница 1 из 1
Показать сообщения за:  Поле сортировки  
Начать новую тему Ответить на тему

   Похожие торренты   Автор   Ответы   Просмотры   Последнее сообщение 
В этой теме нет новых непрочитанных сообщений. Скачать торрент Святые из трущоб / Святые из Бундока / The Boondock Saints (1999) BDRip 1080p

в форуме 720p | 1080p, Размер: 7.95 ГБ, Здоровье: 100%

Anonymous

0
60|8

34
166

02 фев 2014, 12:38

Anonymous Перейти к последнему сообщению

В этой теме нет новых непрочитанных сообщений. Скачать торрент Проверен [iPad] Святые из трущоб (Святые из Бундока) / The Boondock Saints (Трой Даффи) [1999 г., боевик, триллер, драма, комедия, криминал, BDRip]

в форуме Фильмы для iPod, iPhone, iPad, Размер: 2.87 ГБ, Здоровье: 100%

Гость

0
30|11

39
2

18 май 2015, 10:39

Гость Перейти к последнему сообщению

В этой теме нет новых непрочитанных сообщений. Скачать торрент Святые из Бундока / Святые из трущоб / The Boondock Saints (1999) HDRip

в форуме Боевики, Размер: 1.45 ГБ, Здоровье: 100%

Anonymous

0
117|4

49
167

02 фев 2014, 12:34

Anonymous Перейти к последнему сообщению

В этой теме нет новых непрочитанных сообщений. Скачать торрент Проверен Святые из Бундока 2: День всех святых / The Boondock Saints II: All Saints Day (2009) BDRip 1080p

в форуме 720p | 1080p, Размер: 7.76 ГБ, Здоровье: 100%

Гость

0
62|22

82
213

04 май 2015, 20:46

Гость Перейти к последнему сообщению

В этой теме нет новых непрочитанных сообщений. Скачать торрент Святые из бундока 2: День всех святых / The Boondock Saints II: All Saints Day (Трой Даффи / Troy Duffy) [2009 г., боевик, триллер, комедия, BDRip-AVC] [720p]

в форуме 720p | 1080p, Размер: 2.9 ГБ, Здоровье: 100%

Anonymous

0
34|11

46
0

01 апр 2014, 09:34

Anonymous Перейти к последнему сообщению



Сейчас этот форум просматривают: нет зарегистрированных пользователей и гости: 1


Вы не можете начинать темы
Вы не можете отвечать на сообщения
Вы не можете редактировать свои сообщения
Вы не можете удалять свои сообщения
Вы не можете добавлять вложения

Перейти:  

!ВНИМАНИЕ!
 Ресурс не предоставляет электронные версии произведений, а занимается лишь коллекционированием и каталогизацией ссылок, присылаемых и публикуемых на форуме нашими читателями. Если вы являетесь правообладателем какого-либо представленного материала и не желаете чтобы ссылка на него находилась в нашем каталоге, свяжитесь с нами и мы незамедлительно удалим её. Файлы для обмена на трекере предоставлены пользователями сайта, и администрация не несёт ответственности за их содержание. Просьба не заливать файлы, защищенные авторскими правами, а также файлы нелегального содержания!