На всех торрентах на трекере установлена скидка на скачивание в размере 100 процентов(а).
 Возможность скачивания торрента НЕ зависит от ограничений при низком ратио, низком аплоаде, требуемом ратио или требуемом аплоаде.


Начать новую тему Ответить на тему
Статистика раздачи
Размер: 5.29 ГБ | Добавлен: 09 мар 2014, 13:07 | Скачали: 0
Сидеров: 0  [0 байт/сек]    Личеров: 0  [0 байт/сек]
Пред. тема | След. тема 

Автор
Сообщение

СообщениеДобавлено: 09 мар 2014, 13:07 

Вкратце:
Наемный убийца Джек Стаффорд получает несложное задание: приехать в заштатный мотель в 300 милях от Питтсбурга, получить сумку с таинственным содержимым и оставаться в номере, пока за грузом не приедут. Условие одно: ни при каких обстоятельствах не заглядывать внутрь сумки. Но поручение оказывается простым лишь на первый взгляд. Вскоре киллер понимает, что за доверенным ему предметом охотятся коррумпированные агенты ФБР, продажные полицейские, провинциальные гангстеры и кровожадный карлик-цыган из Сербии. И каждый хочет всадить в Джека пулю. Число жертв растет на глазах, и дожить до рассвета смогут далеко не все постояльцы мотеля.


Название: Мотель / Сумка / Комната 13 / Человек с сумкой
Оригинальное название: The Bag Man / Motel Room 13 / Motel
Год выпуска: 2014
Жанр: триллер, криминал
Режиссер: Дэвид Гровик

В ролях: Роберт Де Ниро, Джон Кьюсак, Ребекка Да Коста, Криспин Гловер, Доминик Пёрселл, Стикки Фингаз, Мартин Клебба, Дэвид Шамбрис, Чезз Менендес, Йен Маклафлин





Выпущено: США
Продолжительность: 01:48:54
Озвучивание: Любительское (одноголосое) [qwerty]


Формат: MKV
Качество: BDRip 720p [PHD]
Видео: 4925 kb/s, 1280x530
Аудио: Russian: AC3, 384 kb/s (6 ch) / English: DTS, 1510 kb/s (6 ch)
Субтитры: Russian [Janetta], English
Дополнительно: Сохранены оригинальные чаптеры как на Blu-Ray

Скачать: Сэмпл

Релиз группы:




Общее
The.Bag.Man.2014.Blu.Ray.720p.CINEMANIA.mkv
Формат : Matroska
Версия формата : Version 4 / Version 2
Размер файла : 5,29 Гбайт
Продолжительность : 1 ч. 48 м.
Общий поток : 6956 Кбит/сек
Название фильма : Release Group CINEMANIA
Дата кодирования : UTC 2014-03-09 09:16:11
Программа кодирования : mkvmerge v6.8.0 ('Theme for Great Cities') 64bit built on Mar 2 2014 21:34:26
Библиотека кодирования : libebml v1.3.0 + libmatroska v1.4.1

Видео
Идентификатор : 1
Формат : AVC
Формат/Информация : Advanced Video Codec
Профиль формата : High@L4.1
Параметр CABAC формата : Да
Параметр ReFrames формата : 12 кадров
Идентификатор кодека : V_MPEG4/ISO/AVC
Продолжительность : 1 ч. 48 м.
Битрейт : 4925 Кбит/сек
Ширина : 1280 пикселей
Высота : 530 пикселей
Соотношение сторон : 2,40:1
Режим частоты кадров : Постоянный
Частота кадров : 23,976 кадра/сек
Цветовое пространство : YUV
Субдискретизация насыщенности : 4:2:0
Битовая глубина : 8 бит
Тип развёртки : Прогрессивная
Бит/(Пиксели*Кадры) : 0.303
Размер потока : 3,74 Гбайт (71%)
Заголовок : Release Group CINEMANIA
Язык : English
Default : Да
Forced : Нет

Аудио #1
Идентификатор : 2
Формат : AC-3
Формат/Информация : Audio Coding 3
Расширение режима : CM (complete main)
Параметр Endianness формата : Big
Идентификатор кодека : A_AC3
Продолжительность : 1 ч. 48 м.
Вид битрейта : Постоянный
Битрейт : 384 Кбит/сек
Каналы : 6 каналов
Расположение каналов : Front: L C R, Side: L R, LFE
Частота : 48,0 КГц
Битовая глубина : 16 бит
Метод сжатия : С потерями
Размер потока : 299 Мбайт (6%)
Заголовок : qwerty
Язык : Russian
Default : Да
Forced : Да

Аудио #2
Идентификатор : 3
Формат : DTS
Формат/Информация : Digital Theater Systems
Режим : 16
Параметр Endianness формата : Big
Идентификатор кодека : A_DTS
Продолжительность : 1 ч. 48 м.
Вид битрейта : Постоянный
Битрейт : 1509 Кбит/сек
Каналы : 6 каналов
Расположение каналов : Front: L C R, Side: L R, LFE
Частота : 48,0 КГц
Битовая глубина : 24 бит
Метод сжатия : С потерями
Размер потока : 1,15 Гбайт (22%)
Язык : English
Default : Нет
Forced : Нет

Текст #1
Идентификатор : 4
Формат : UTF-8
Идентификатор кодека : S_TEXT/UTF8
Идентификатор кодека/Информация : UTF-8 Plain Text
Заголовок : Janetta
Язык : Russian
Default : Нет
Forced : Нет

Текст #2
Идентификатор : 5
Формат : UTF-8
Идентификатор кодека : S_TEXT/UTF8
Идентификатор кодека/Информация : UTF-8 Plain Text
Язык : English
Default : Нет
Forced : Нет

Меню
00:00:00.000 : en:00:00:00.000
00:05:34.501 : en:00:05:34.501
00:10:00.850 : en:00:10:00.850
00:16:30.156 : en:00:16:30.156
00:21:09.643 : en:00:21:09.643
00:26:34.301 : en:00:26:34.301
00:31:43.318 : en:00:31:43.318
00:37:17.902 : en:00:37:17.902
00:42:09.318 : en:00:42:09.318
00:46:11.268 : en:00:46:11.268
00:52:23.599 : en:00:52:23.599
00:57:02.044 : en:00:57:02.044
01:02:28.453 : en:01:02:28.453
01:07:49.482 : en:01:07:49.482
01:12:37.061 : en:01:12:37.061
01:16:46.727 : en:01:16:46.727
01:24:15.676 : en:01:24:15.676
01:30:44.105 : en:01:30:44.105
01:36:37.083 : en:01:36:37.083
01:40:53.965 : en:01:40:53.965
01:42:57.713 : en:01:42:57.713

загрузка...
Правила, инструкции, FAQ!!!
Торрент  Добавлен [09 мар 2014, 13:07] Скачать торрент
Скачать торрент
[ Размер 26.99 КБ / Просмотров 5 ]

Статус  
 
Размер  5.29 ГБ
Приватный: Нет (DHT включён)
.torrent скачан  0
Как залить торрент? | Как скачать Torrent? | Как смотреть и слушать онлайн?  


     Отправить личное сообщение
   
Страница 1 из 1
Показать сообщения за:  Поле сортировки  
Начать новую тему Ответить на тему

   Похожие торренты   Автор   Ответы   Просмотры   Последнее сообщение 
В этой теме нет новых непрочитанных сообщений. Скачать торрент Мотель Бейтс (Bates Motel) / (Сезоны 1-2, серии 1-11 из 20) BaibaKo (2013-2014) [MP4|720x400] <WEB-DLRip H.264>

в форуме Видео для смартфонов и КПК, Размер: 6.37 ГБ, Здоровье: 0%

Anonymous

0
0|0

111
0

21 апр 2014, 22:27

Anonymous Перейти к последнему сообщению

В этой теме нет новых непрочитанных сообщений. Скачать торрент Проверен (Rock/Funk) Red Rose Motel - Red Rose Motel - 2014, MP3, 320 kbps

в форуме Classic Rock & Hard Rock, Размер: 104.47 МБ, Здоровье: 0%

Anonymous

0
0|0

0
0

13 ноя 2016, 11:31

Anonymous Перейти к последнему сообщению

В этой теме нет новых непрочитанных сообщений. Скачать торрент Проверен (Rock/Pop) The Green Car Motel - The Green Car Motel - 2007, MP3 (tracks), 320 kbps

в форуме Classic Rock & Hard Rock, Размер: 147.19 МБ, Здоровье: 0%

Anonymous

0
0|0

0
0

13 ноя 2016, 20:42

Anonymous Перейти к последнему сообщению

В этой теме нет новых непрочитанных сообщений. Скачать торрент Проверен Военная комната / War Room (2015) BDRip 720p | iTunes

в форуме 720p | 1080p, Размер: 4.71 ГБ, Здоровье: 100%

Anonymous

0
16|1

291
11

22 июл 2016, 22:20

Anonymous Перейти к последнему сообщению

В этой теме нет новых непрочитанных сообщений. Скачать торрент Проверен (60-es Psychedelic Rock Style) Bilderberg Motel - Lorien - 2013, MP3, 320 kbps

в форуме Classic Rock & Hard Rock, Размер: 95.1 МБ, Здоровье: 0%

Anonymous

0
0|0

0
0

13 ноя 2016, 14:18

Anonymous Перейти к последнему сообщению



Сейчас этот форум просматривают: нет зарегистрированных пользователей и гости: 1


Вы не можете начинать темы
Вы не можете отвечать на сообщения
Вы не можете редактировать свои сообщения
Вы не можете удалять свои сообщения
Вы не можете добавлять вложения

Перейти:  

!ВНИМАНИЕ!
 Ресурс не предоставляет электронные версии произведений, а занимается лишь коллекционированием и каталогизацией ссылок, присылаемых и публикуемых на форуме нашими читателями. Если вы являетесь правообладателем какого-либо представленного материала и не желаете чтобы ссылка на него находилась в нашем каталоге, свяжитесь с нами и мы незамедлительно удалим её. Файлы для обмена на трекере предоставлены пользователями сайта, и администрация не несёт ответственности за их содержание. Просьба не заливать файлы, защищенные авторскими правами, а также файлы нелегального содержания!