На всех торрентах на трекере установлена скидка на скачивание в размере 100 процентов(а).
 Возможность скачивания торрента НЕ зависит от ограничений при низком ратио, низком аплоаде, требуемом ратио или требуемом аплоаде.


Начать новую тему Ответить на тему
Статистика раздачи
Размер: 5.4 ГБ | Добавлен: 09 мар 2014, 11:18 | Скачали: 0
Сидеров: 0  [0 байт/сек]    Личеров: 0  [0 байт/сек]
Пред. тема | След. тема 

Автор
Сообщение

СообщениеДобавлено: 09 мар 2014, 11:18 

Название: Дневник памяти
Оригинальное название: The Notebook
Год выпуска: 2004
Жанр: Мелодрама, драма, экранизация
Выпущено: США, Avery Pix, Gran Via, New Line Cinema
Режиссер: Ник Кассаветис

В ролях: Райан Гослинг, Рэйчел МакАдамс, Джеймс Гарнер, Джина Роулэндс, Джеймс Мэрсден, Сэм Шепард, Дэвид Торнтон, Джоан Аллен, Кевин Коннолли, Дженнифер Экхолс, Джеффри Найт, Рени Эмбер, Хезер Уолкист, Эндрю Шафф, Мэтт Шелли, Майкл Д. Фуллер, Джонатан Паркс Джордан, Лесли Фишер

Перевод: Дублированный, профессиональный многоголосый, авторский

Сюжет фильма
Трогательная история любви, прочитанная пожилым мужчиной из старой записной книжки женщине в доме престарелых. Это история отношений юноши и девушки из разных социальных слоев, живших в Северной Каролине. Ной и Элли провели вместе незабываемое лето, пока их не разделили вначале родители, а затем Вторая мировая война. После войны все изменилось: Элли обручилась с удачливым бизнесменом, а Ной жил наедине со своими воспоминаниями в старинном доме, который ему удалось отреставрировать. Когда Элли прочла об этом в местной газете, она поняла: ей нужно найти его и решить наконец судьбу их любви…



Файл
Качество: BDRip 720p (исходник Blu-ray)
Видео: 1280x542, 3880 Кбит/сек, 23.976 кадр/сек, AVC, x264, High@L4.1, 0.233 Бит/[Пиксели*Кадры], 2pass
Аудио 1: AC3 5.1 48 kHz 640 kbps - Дублированный
Аудио 2: AC3 5.1 48 kHz 448 kbps - Профессиональный многоголосый
Аудио 3: AC3 5.1 48 kHz 448 kbps - Авторский (Рудой)
Аудио 4: AC3 2.0 48 kHz 192 kbps - Профессиональный многоголосый, НТВ+
Аудио 5: AC3 5.1 48 kHz 640 kbps - English
Чаптеры: есть
Субтитры: Russian,English
Продолжительность: 02:03:49
Автор рипа: Сообщество:


Format : Matroska
Format version : Version 2
File size : 5.40 GiB
Duration : 2h 3mn
Overall bit rate : 6 248 Kbps
Movie name : Dnevnik pamjati.(2004).BDRip.720p.[denis100]
Encoded date : UTC 2014-03-05 06:55:20
Writing application : mkvmerge v5.8.0 ('No Sleep / Pillow') built on Sep 2 2012 15:37:04
Writing library : libebml v1.2.3 + libmatroska v1.3.0

Video
ID : 1
Format : AVC
Format/Info : Advanced Video Codec
Format profile : High@L4.1
Format settings, CABAC : Yes
Format settings, ReFrames : 11 frames
Codec ID : V_MPEG4/ISO/AVC
Duration : 2h 3mn
Bit rate : 3 880 Kbps
Width : 1 280 pixels
Height : 542 pixels
Display aspect ratio : 2.35:1
Frame rate mode : Constant
Frame rate : 23.976 fps
Color space : YUV
Chroma subsampling : 4:2:0
Bit depth : 8 bits
Scan type : Progressive
Bits/(Pixel*Frame) : 0.233
Stream size : 3.25 GiB (60%)
Title : Dnevnik pamjati.(2004).BDRip.720p.[denis100]
Writing library : x264 core 138 r2358 9e941d1
Encoding settings : cabac=1 / ref=11 / deblock=1:-3:-3 / analyse=0x3:0x133 / me=umh / subme=11 / psy=1 / psy_rd=1.00:0.10 / mixed_ref=1 / me_range=32 / chroma_me=1 / trellis=2 / 8x8dct=1 / cqm=0 / deadzone=21,11 / fast_pskip=0 / chroma_qp_offset=-3 / threads=6 / lookahead_threads=1 / sliced_threads=0 / nr=0 / decimate=1 / interlaced=0 / bluray_compat=0 / constrained_intra=0 / bframes=7 / b_pyramid=2 / b_adapt=2 / b_bias=0 / direct=3 / weightb=1 / open_gop=0 / weightp=2 / keyint=240 / keyint_min=23 / scenecut=40 / intra_refresh=0 / rc=2pass / mbtree=0 / bitrate=3880 / ratetol=1.0 / qcomp=0.60 / qpmin=0 / qpmax=69 / qpstep=4 / cplxblur=20.0 / qblur=0.5 / ip_ratio=1.40 / pb_ratio=1.30 / aq=1:0.90
Language : English
Default : Yes
Forced : No

Audio #1
ID : 2
Format : AC-3
Format/Info : Audio Coding 3
Mode extension : CM (complete main)
Format settings, Endianness : Big
Codec ID : A_AC3
Duration : 2h 3mn
Bit rate mode : Constant
Bit rate : 640 Kbps
Channel(s) : 6 channels
Channel positions : Front: L C R, Side: L R, LFE
Sampling rate : 48.0 KHz
Bit depth : 16 bits
Compression mode : Lossy
Stream size : 567 MiB (10%)
Title : Дублированный
Language : Russian
Default : Yes
Forced : No

Audio #2
ID : 3
Format : AC-3
Format/Info : Audio Coding 3
Mode extension : CM (complete main)
Format settings, Endianness : Big
Codec ID : A_AC3
Duration : 2h 3mn
Bit rate mode : Constant
Bit rate : 448 Kbps
Channel(s) : 6 channels
Channel positions : Front: L C R, Side: L R, LFE
Sampling rate : 48.0 KHz
Bit depth : 16 bits
Compression mode : Lossy
Stream size : 397 MiB (7%)
Title : профессиональный многоголосый
Language : Russian
Default : No
Forced : No

Audio #3
ID : 4
Format : AC-3
Format/Info : Audio Coding 3
Mode extension : CM (complete main)
Format settings, Endianness : Big
Codec ID : A_AC3
Duration : 2h 3mn
Bit rate mode : Constant
Bit rate : 448 Kbps
Channel(s) : 6 channels
Channel positions : Front: L C R, Side: L R, LFE
Sampling rate : 48.0 KHz
Bit depth : 16 bits
Compression mode : Lossy
Stream size : 397 MiB (7%)
Title : Авторский (Рудой)
Language : Russian
Default : No
Forced : No

Audio #4
ID : 5
Format : AC-3
Format/Info : Audio Coding 3
Mode extension : CM (complete main)
Format settings, Endianness : Big
Codec ID : A_AC3
Duration : 2h 3mn
Bit rate mode : Constant
Bit rate : 192 Kbps
Channel(s) : 2 channels
Channel positions : Front: L R
Sampling rate : 48.0 KHz
Bit depth : 16 bits
Compression mode : Lossy
Stream size : 170 MiB (3%)
Title : профессиональный многоголосый, НТВ+
Language : Russian
Default : No
Forced : No

Audio #5
ID : 6
Format : AC-3
Format/Info : Audio Coding 3
Mode extension : CM (complete main)
Format settings, Endianness : Big
Codec ID : A_AC3
Duration : 2h 3mn
Bit rate mode : Constant
Bit rate : 640 Kbps
Channel(s) : 6 channels
Channel positions : Front: L C R, Side: L R, LFE
Sampling rate : 48.0 KHz
Bit depth : 16 bits
Compression mode : Lossy
Stream size : 567 MiB (10%)
Title : English
Language : English
Default : No
Forced : No

Text #1
ID : 7
Format : UTF-8
Codec ID : S_TEXT/UTF8
Codec ID/Info : UTF-8 Plain Text
Title : Russian
Language : Russian
Default : No
Forced : No

Text #2
ID : 8
Format : UTF-8
Codec ID : S_TEXT/UTF8
Codec ID/Info : UTF-8 Plain Text
Title : English
Language : English
Default : No
Forced : No

Menu
00:00:00.000 : en:Chapter 01
00:03:17.489 : en:Chapter 02
00:05:08.683 : en:Chapter 03
00:10:40.849 : en:Chapter 04
00:19:12.985 : en:Chapter 05
00:28:18.322 : en:Chapter 06
00:36:51.084 : en:Chapter 07
00:43:15.885 : en:Chapter 08
00:54:04.408 : en:Chapter 09
01:01:35.734 : en:Chapter 10
01:15:15.511 : en:Chapter 11
01:25:21.199 : en:Chapter 12
01:35:35.313 : en:Chapter 13
01:42:15.338 : en:Chapter 14
01:51:18.672 : en:Chapter 15
01:58:20.302 : en:Chapter 16

x264 [info]: frame I:1356 Avg QP:14.18 size:127649
x264 [info]: frame P:36884 Avg QP:16.63 size: 39922
x264 [info]: frame B:139876 Avg QP:19.28 size: 13974
загрузка...
Правила, инструкции, FAQ!!!
Торрент  Добавлен [09 мар 2014, 11:18] Скачать торрент
Скачать торрент
[ Размер 27.54 КБ / Просмотров 8 ]

Статус  
 
Размер  5.4 ГБ
Приватный: Нет (DHT включён)
.torrent скачан  0
Как залить торрент? | Как скачать Torrent? | Как смотреть и слушать онлайн?  


     Отправить личное сообщение
   
Страница 1 из 1
Показать сообщения за:  Поле сортировки  
Начать новую тему Ответить на тему

   Похожие торренты   Автор   Ответы   Просмотры   Последнее сообщение 
В этой теме нет новых непрочитанных сообщений. Скачать торрент Проверен Дневник памяти / The Notebook (Ник Кассаветис / Nick Cassavetes) [2004 г., драма, мелодрама, BDRip, 480p] DUB, Original + sub(rus, eng)

в форуме Фильмы для iPod, iPhone, iPad, Размер: 1.53 ГБ, Здоровье: 100%

Гость

0
56|19

25
0

11 май 2015, 01:29

Гость Перейти к последнему сообщению

В этой теме нет новых непрочитанных сообщений. Закрыто правообладателем Гарри Лорейн, Джерри Лукас | Развитие памяти. Классическое руководство по улучшению памяти (2014) [FB2] Данный торрент является блокированным, причина: Закрыто правообладателем

в форуме Популярная психология, Размер: 1.1 МБ, Здоровье: 100%

Anonymous

0
192|10

454
36

19 янв 2016, 19:27

Anonymous Перейти к последнему сообщению

В этой теме нет новых непрочитанных сообщений. Скачать торрент Бригадир Юрий | Дневник тестировщика [2004] [CHM]

в форуме Сатира, юмор, Размер: 247.22 КБ, Здоровье: 0%

Anonymous

0
0|0

42
0

20 мар 2014, 22:51

Anonymous Перейти к последнему сообщению

В этой теме нет новых непрочитанных сообщений. Скачать торрент Проверен Мелисса П. - Сто прикосновений (Дневник Мелиссы) [2004, DOC, RUS]

в форуме Женский роман, Размер: 474 КБ, Здоровье: 100%

Anonymous

0
1|0

0
0

28 авг 2016, 20:42

Anonymous Перейти к последнему сообщению

В этой теме нет новых непрочитанных сообщений. Скачать торрент Проверен Amphora/Redfish - Аноним - Дневник Алисы / Go Ask Alice [2004, DOC]

в форуме Зарубежная литература (XX и XXI век), Размер: 530.5 КБ, Здоровье: 100%

Anonymous

0
9|3

0
0

08 сен 2016, 18:55

Anonymous Перейти к последнему сообщению



Сейчас этот форум просматривают: нет зарегистрированных пользователей и гости: 1


Вы не можете начинать темы
Вы не можете отвечать на сообщения
Вы не можете редактировать свои сообщения
Вы не можете удалять свои сообщения
Вы не можете добавлять вложения

Перейти:  

!ВНИМАНИЕ!
 Ресурс не предоставляет электронные версии произведений, а занимается лишь коллекционированием и каталогизацией ссылок, присылаемых и публикуемых на форуме нашими читателями. Если вы являетесь правообладателем какого-либо представленного материала и не желаете чтобы ссылка на него находилась в нашем каталоге, свяжитесь с нами и мы незамедлительно удалим её. Файлы для обмена на трекере предоставлены пользователями сайта, и администрация не несёт ответственности за их содержание. Просьба не заливать файлы, защищенные авторскими правами, а также файлы нелегального содержания!