На всех торрентах на трекере установлена скидка на скачивание в размере 100 процентов(а).
 Возможность скачивания торрента НЕ зависит от ограничений при низком ратио, низком аплоаде, требуемом ратио или требуемом аплоаде.


Начать новую тему Ответить на тему
Статистика раздачи
Размер: 2 ГБ | Добавлен: 09 мар 2014, 09:39 | Скачали: 1
Сидеров: 8  [0 байт/сек]    Личеров: 1  [0 байт/сек]
Пред. тема | След. тема 

Автор
Сообщение

СообщениеДобавлено: 09 мар 2014, 09:39 

Информация о фильме
Название: Убей своих любимых
Оригинальное название: Kill your darlings
Год выхода: 2013
Жанр: Драма, мелодрама
Режиссер: Джон Крокидас

В ролях: Дэниэл Рэдклифф, Дэйн ДеХаан, Бен Фостер, Майкл С. Холл, Джек Хьюстон, Дженнифер Джейсон Ли, Элизабет Олсен, Дэвид Кросс, Джон Каллам, Бренда Веле

О фильме:
«Убей своих любимых» – биографическая драма 2013 года, ставшая режиссёрским дебютом Джона Крокидаса. В фильме рассказывается о том, как произошедшее в 1944 году в Колумбийском университете убийство одного из студентов свело вместе молодых писателей Аллена Гинзберга (Дэниэл Рэдклифф), Джека Керуака (Джек Хьюстон) и Уильяма Берроуза (Бен Фостер), которым впоследствии суждено было стать движущей силой бит-поколения. Они хорошо знали как погибшего Карра, так и убившего его Камеррера, а некоторое время спустя Берроуз и Керуак описали произошедшее в своём романе «И бегемоты сварились в своих бассейнах».



Страна: США / Benaroya Pictures, Killer Films, Outpost Studios
Продолжительность: 01:42:44
Перевод: Любительский одноголосый


Качество: BDRip-AVC [ Kill.Your.Darlings.2013.1080p.BluRay.AVC.DTS-HD.MA.5.1-PublicHD]
Видео: MPEG-4 AVC, 2143 Кбит/с, 1024x426, 23.976 кадр/с
Аудио #1: Русский (AC3, 2 ch, 192 Кбит/с) / Любительский одноголосый (Василий Кошкин)
Аудио #2: Английский (AC3, 6 ch, 448 Кбит/с)
Субтитры: Русские, английские
Семпл

x264 [info]: frame I:1146 Avg QP:14.07 size: 66698
x264 [info]: frame P:28928 Avg QP:17.02 size: 22746
x264 [info]: frame B:117718 Avg QP:19.51 size: 7788
x264 [info]: consecutive B-frames: 1.8% 2.4% 5.5% 16.1% 15.2% 31.4% 8.3% 6.0% 3.3% 3.3% 1.7% 2.6% 1.5% 0.8%
x264 [info]: mb I I16..4: 12.5% 72.9% 14.6%
x264 [info]: mb P I16..4: 0.7% 11.4% 0.8% P16..4: 31.3% 38.8% 13.3% 0.0% 0.0% skip: 3.8%
x264 [info]: mb B I16..4: 0.0% 0.8% 0.0% B16..8: 38.8% 20.4% 3.9% direct: 4.8% skip:31.2% L0:45.4% L1:46.5% BI: 8.1%
x264 [info]: 8x8 transform intra:86.0% inter:56.9%
x264 [info]: direct mvs spatial:98.4% temporal:1.6%
x264 [info]: coded y,uvDC,uvAC intra: 93.4% 82.5% 66.4% inter: 25.4% 15.3% 7.4%
x264 [info]: i16 v,h,dc,p: 28% 12% 16% 45%
x264 [info]: i8 v,h,dc,ddl,ddr,vr,hd,vl,hu: 9% 6% 14% 10% 13% 12% 12% 12% 12%
x264 [info]: i4 v,h,dc,ddl,ddr,vr,hd,vl,hu: 12% 6% 10% 10% 14% 14% 12% 11% 11%
x264 [info]: i8c dc,h,v,p: 44% 23% 17% 15%
x264 [info]: Weighted P-Frames: Y:10.8% UV:5.8%
x264 [info]: ref P L0: 44.3% 7.1% 20.2% 7.8% 6.3% 4.2% 3.9% 2.0% 2.0% 1.7% 0.3% 0.0%
x264 [info]: ref B L0: 66.9% 14.6% 7.1% 3.9% 2.6% 2.2% 1.7% 0.7% 0.3%
x264 [info]: ref B L1: 91.2% 8.8%
x264 [info]: kb/s:2143.02

Format : Matroska
Format version : Version 4 / Version 2
File size : 2.00 GiB
Duration : 1h 42mn
Overall bit rate : 2 785 Kbps
Movie name : -=MediaClub - Odessit=-
Encoded date : UTC 2014-03-06 12:16:55
Writing application : mkvmerge v6.8.0 ('Theme for Great Cities') 64bit built on Mar 2 2014 21:34:26
Writing library : libebml v1.3.0 + libmatroska v1.4.1

Video
ID : 1
Format : AVC
Format/Info : Advanced Video Codec
Format profile : High@L4.1
Format settings, CABAC : Yes
Format settings, ReFrames : 10 frames
Codec ID : V_MPEG4/ISO/AVC
Duration : 1h 42mn
Bit rate : 2 143 Kbps
Width : 1 024 pixels
Height : 426 pixels
Display aspect ratio : 2.40:1
Frame rate : 23.976 fps
Color space : YUV
Chroma subsampling : 4:2:0
Bit depth : 8 bits
Scan type : Progressive
Bits/(Pixel*Frame) : 0.205
Stream size : 1.50 GiB (75%)
Writing library : x264 core 142 r2389+41 02cb608 tMod [8-bit@4:2:0 X86_64]
Encoding settings : cabac=1 / ref=10 / deblock=1:-2:-2 / analyse=0x3:0x113 / me=umh / subme=11 / psy=1 / fade_compensate=0.00 / psy_rd=1.00:0.05 / mixed_ref=1 / me_range=48 / chroma_me=1 / trellis=2 / 8x8dct=1 / cqm=0 / deadzone=21,11 / fast_pskip=0 / chroma_qp_offset=-3 / threads=6 / lookahead_threads=1 / sliced_threads=0 / nr=0 / decimate=0 / interlaced=0 / bluray_compat=0 / constrained_intra=0 / fgo=0 / bframes=13 / b_pyramid=2 / b_adapt=2 / b_bias=0 / direct=3 / weightb=1 / open_gop=0 / weightp=2 / keyint=240 / keyint_min=23 / scenecut=40 / intra_refresh=0 / rc=2pass / mbtree=0 / bitrate=2143 / ratetol=1.0 / qcomp=0.60 / qpmin=0:0:0 / qpmax=69:69:69 / qpstep=4 / cplxblur=20.0 / qblur=0.5 / ip_ratio=1.40 / pb_ratio=1.30 / aq=1:0.80 / aq-sensitivity=10.00 / aq-factor=1.00:1.00:1.00 / aq2=0 / aq3=0
Matrix coefficients : BT.709

Audio #1
ID : 2
Format : AC-3
Format/Info : Audio Coding 3
Mode extension : CM (complete main)
Codec ID : A_AC3
Duration : 1h 42mn
Bit rate mode : Constant
Bit rate : 192 Kbps
Channel(s) : 2 channels
Channel positions : Front: L R
Sampling rate : 48.0 KHz
Bit depth : 16 bits
Compression mode : Lossy
Stream size : 141 MiB (7%)
Title : Любительское (одноголосое) [Василий Кошкин]
Language : Russian

Audio #2
ID : 3
Format : AC-3
Format/Info : Audio Coding 3
Mode extension : CM (complete main)
Codec ID : A_AC3
Duration : 1h 42mn
Bit rate mode : Constant
Bit rate : 448 Kbps
Channel(s) : 6 channels
Channel positions : Front: L C R, Side: L R, LFE
Sampling rate : 48.0 KHz
Bit depth : 16 bits
Compression mode : Lossy
Stream size : 329 MiB (16%)
Language : English

Text #1
ID : 4
Format : UTF-8
Codec ID : S_TEXT/UTF8
Codec ID/Info : UTF-8 Plain Text
Language : Russian

Text #2
ID : 5
Format : UTF-8
Codec ID : S_TEXT/UTF8
Codec ID/Info : UTF-8 Plain Text
Language : English

Menu
00:00:00.000 : en:00:00:00.000
00:05:39.339 : en:00:05:39.339
00:09:11.926 : en:00:09:11.926
00:13:45.992 : en:00:13:45.992
00:23:31.118 : en:00:23:31.118
00:28:50.354 : en:00:28:50.354
00:36:31.272 : en:00:36:31.272
00:42:13.781 : en:00:42:13.781
00:45:57.838 : en:00:45:57.838
00:54:10.622 : en:00:54:10.622
00:57:41.583 : en:00:57:41.583
01:03:23.508 : en:01:03:23.508
01:08:16.509 : en:01:08:16.509
01:12:17.583 : en:01:12:17.583
01:20:11.807 : en:01:20:11.807
01:28:02.319 : en:01:28:02.319



Релиз от: |
загрузка...
Правила, инструкции, FAQ!!!
Торрент  Добавлен [09 мар 2014, 09:39] Скачать торрент
Скачать торрент
[ Размер 20.52 КБ / Просмотров 12 ]

Статус  
 
Размер  2 ГБ
Приватный: Нет (DHT включён)
.torrent скачан  1
Как залить торрент? | Как скачать Torrent? | Как смотреть и слушать онлайн?  


     Отправить личное сообщение
   
Страница 1 из 1
Показать сообщения за:  Поле сортировки  
Начать новую тему Ответить на тему

   Похожие торренты   Автор   Ответы   Просмотры   Последнее сообщение 
В этой теме нет новых непрочитанных сообщений. Скачать торрент Убей своих любимых / Kill Your Darlings (2013) BDRip 720p | L1

в форуме 720p | 1080p, Размер: 3.41 ГБ, Здоровье: 0%

Anonymous

0
0|0

48
0

09 мар 2014, 09:35

Anonymous Перейти к последнему сообщению

В этой теме нет новых непрочитанных сообщений. Закрыто правообладателем OST - Убей своих друзей / VA - Kill Your Friends (2015) FLAC Данный торрент является блокированным, причина: Закрыто правообладателем

в форуме Зарубежная музыка, Размер: 444.01 МБ, Здоровье: 100%

Гость

0
25|5

188
62

18 ноя 2015, 20:20

Гость Перейти к последнему сообщению

В этой теме нет новых непрочитанных сообщений. Скачать торрент Проверен Убей своих друзей / Kill Your Friends (2015) HDRip | L2

в форуме Триллеры, Размер: 1.45 ГБ, Здоровье: 100%

Гость

0
135|122

146
1

09 апр 2016, 00:46

Гость Перейти к последнему сообщению

В этой теме нет новых непрочитанных сообщений. Скачать торрент Проверен Убей меня три раза / Kill Me Three Times (2014) WEB-DLRip | L

в форуме Боевики, Размер: 1.37 ГБ, Здоровье: 100%

Гость

0
722|336

84
739

08 май 2015, 20:27

Гость Перейти к последнему сообщению

В этой теме нет новых непрочитанных сообщений. Скачать торрент Проверен (Hard Rock, Sleaze ) Kill Shott - Kill Shott (EP) - 2013, MP3, 320 kbps

в форуме Classic Rock & Hard Rock, Размер: 47.88 МБ, Здоровье: 0%

Anonymous

0
0|0

0
0

13 ноя 2016, 12:18

Anonymous Перейти к последнему сообщению



Сейчас этот форум просматривают: нет зарегистрированных пользователей и гости: 1


Вы не можете начинать темы
Вы не можете отвечать на сообщения
Вы не можете редактировать свои сообщения
Вы не можете удалять свои сообщения
Вы не можете добавлять вложения

Перейти:  

!ВНИМАНИЕ!
 Ресурс не предоставляет электронные версии произведений, а занимается лишь коллекционированием и каталогизацией ссылок, присылаемых и публикуемых на форуме нашими читателями. Если вы являетесь правообладателем какого-либо представленного материала и не желаете чтобы ссылка на него находилась в нашем каталоге, свяжитесь с нами и мы незамедлительно удалим её. Файлы для обмена на трекере предоставлены пользователями сайта, и администрация не несёт ответственности за их содержание. Просьба не заливать файлы, защищенные авторскими правами, а также файлы нелегального содержания!