На всех торрентах на трекере установлена скидка на скачивание в размере 100 процентов(а).
 Возможность скачивания торрента НЕ зависит от ограничений при низком ратио, низком аплоаде, требуемом ратио или требуемом аплоаде.


Начать новую тему Ответить на тему
Статистика раздачи
Размер: 4.5 ГБ | Добавлен: 09 мар 2014, 09:02 | Скачали: 0
Сидеров: 0  [0 байт/сек]    Личеров: 1  [0 байт/сек]
Пред. тема | След. тема 

Автор
Сообщение

СообщениеДобавлено: 09 мар 2014, 09:02 

Вкратце:
Софи Уильямс – студентка по обмену, которая приезжает в небольшой городок на севере штата Нью-Йорк и селится в доме семьи Рейнолдс. Наладить отношения с окружающими оказывается не так-то просто: среди сверстников Софи мало кто смог бы стать ей хорошим другом. Поэтому единственным источником живого сердечного общения для Софи становится принявшая ее семья, а точнее, глава семьи, Кит Рейнолдс.

Основная проблема Кита, который быстро нашел с Софи общий язык, состоит в том, что он чувствует себя как в темнице: они с женой состоят в браке уже 15 лет, и с первого взгляда их брак кажется вполне удачным, однако прежней духовной близости между супругами уже нет. Очень скоро Софи и Кит становятся друзьями, а потом между ними завязываются и романтические чувства, чему немало способствуют долгие вечерние разговоры и увлечение музыкой. Появление Софи раз и навсегда меняет семью Рейнолдсов, и чем закончится это знакомство для каждого из них, пока неизвестно.



Название: Полной грудью
Оригинальное название: Breathe In
Жанр: драма, мелодрама
Год выпуска: 2013
Режиссёр: Дрэйк Доремус

В ролях: Гай Пирс, Фелисити Джонс, Эми Райан, Кайл МакЛоклен, Александра Уэнтуорт




Выпущено: США
Продолжительность: 01:37:14
Озвучивание: Любительское (одноголосое) [datynet]


Формат: MKV
Качество: BDRip 720p [iNK]
Видео: 4931 kb/s, 1280х538
Аудио: Russian: AC3, 192 kb/s (2 ch) / English: DTS, 1510 kb/s (6 ch)
Субтитры: Russian [kot7153], English
Дополнительно: Сохранены оригинальные чаптеры как на Blu-Ray

Скачать: Сэмпл

Релиз группы:




Общее
Breath.In.2013.Blu.Ray.720p.CINEMANIA.mkv
Формат : Matroska
Версия формата : Version 4 / Version 2
Размер файла : 4,50 Гбайт
Продолжительность : 1 ч. 37 м.
Общий поток : 6630 Кбит/сек
Название фильма : Release Group CINEMANIA
Дата кодирования : UTC 2014-03-08 11:25:23
Программа кодирования : mkvmerge v6.8.0 ('Theme for Great Cities') 64bit built on Mar 2 2014 21:34:26
Библиотека кодирования : libebml v1.3.0 + libmatroska v1.4.1

Видео
Идентификатор : 1
Формат : AVC
Формат/Информация : Advanced Video Codec
Профиль формата : High@L4.1
Параметр CABAC формата : Да
Параметр ReFrames формата : 12 кадров
Идентификатор кодека : V_MPEG4/ISO/AVC
Продолжительность : 1 ч. 37 м.
Битрейт : 4931 Кбит/сек
Ширина : 1280 пикселей
Высота : 538 пикселей
Соотношение сторон : 2,40:1
Режим частоты кадров : Постоянный
Частота кадров : 23,976 кадра/сек
Цветовое пространство : YUV
Субдискретизация насыщенности : 4:2:0
Битовая глубина : 8 бит
Тип развёртки : Прогрессивная
Бит/(Пиксели*Кадры) : 0.299
Размер потока : 3,26 Гбайт (72%)
Заголовок : Release Group CINEMANIA
Библиотека кодирования : x264 core 133 r2334 a3ac64b
Настройки программы : cabac=1 / ref=12 / deblock=1:-3:-3 / analyse=0x3:0x113 / me=tesa / subme=11 / psy=1 / psy_rd=1.10:0.00 / mixed_ref=1 / me_range=48 / chroma_me=1 / trellis=2 / 8x8dct=1 / cqm=0 / deadzone=21,11 / fast_pskip=0 / chroma_qp_offset=-4 / threads=12 / lookahead_threads=2 / sliced_threads=0 / nr=0 / decimate=0 / interlaced=0 / bluray_compat=0 / constrained_intra=0 / bframes=8 / b_pyramid=2 / b_adapt=2 / b_bias=0 / direct=3 / weightb=1 / open_gop=0 / weightp=2 / keyint=250 / keyint_min=23 / scenecut=40 / intra_refresh=0 / rc_lookahead=250 / rc=2pass / mbtree=1 / bitrate=4931 / ratetol=1.0 / qcomp=0.75 / qpmin=0 / qpmax=69 / qpstep=4 / cplxblur=20.0 / qblur=0.5 / ip_ratio=1.20 / aq=1:0.85
Язык : English
Default : Да
Forced : Нет

Аудио #1
Идентификатор : 2
Формат : AC-3
Формат/Информация : Audio Coding 3
Расширение режима : CM (complete main)
Параметр Endianness формата : Big
Идентификатор кодека : A_AC3
Продолжительность : 1 ч. 37 м.
Вид битрейта : Постоянный
Битрейт : 192 Кбит/сек
Каналы : 2 канала
Расположение каналов : Front: L R
Частота : 44,1 КГц
Битовая глубина : 16 бит
Метод сжатия : С потерями
Размер потока : 134 Мбайт (3%)
Заголовок : datynet
Язык : Russian
Default : Да
Forced : Да

Аудио #2
Идентификатор : 3
Формат : DTS
Формат/Информация : Digital Theater Systems
Режим : 16
Параметр Endianness формата : Big
Идентификатор кодека : A_DTS
Продолжительность : 1 ч. 37 м.
Вид битрейта : Постоянный
Битрейт : 1509 Кбит/сек
Каналы : 6 каналов
Расположение каналов : Front: L C R, Side: L R, LFE
Частота : 48,0 КГц
Битовая глубина : 16 бит
Метод сжатия : С потерями
Задержка видео : 751 мс.
Размер потока : 1,02 Гбайт (23%)
Язык : English
Default : Нет
Forced : Нет

Текст #1
Идентификатор : 4
Формат : UTF-8
Идентификатор кодека : S_TEXT/UTF8
Идентификатор кодека/Информация : UTF-8 Plain Text
Заголовок : kot7153
Язык : Russian
Default : Нет
Forced : Нет

Текст #2
Идентификатор : 5
Формат : UTF-8
Идентификатор кодека : S_TEXT/UTF8
Идентификатор кодека/Информация : UTF-8 Plain Text
Язык : English
Default : Нет
Forced : Нет

Меню
00:00:00.000 : en:00:00:00.000
00:08:00.188 : en:00:08:00.188
00:19:39.762 : en:00:19:39.762
00:29:30.310 : en:00:29:30.310
00:39:05.468 : en:00:39:05.468
00:47:19.336 : en:00:47:19.336
00:52:10.210 : en:00:52:10.210
01:02:17.275 : en:01:02:17.275
01:12:28.094 : en:01:12:28.094
01:20:47.259 : en:01:20:47.259
01:27:21.403 : en:01:27:21.403
01:31:45.917 : en:01:31:45.917
загрузка...
Правила, инструкции, FAQ!!!
Торрент  Добавлен [09 мар 2014, 09:02] Скачать торрент
Скачать торрент
[ Размер 23.08 КБ / Просмотров 10 ]

Статус  
 
Размер  4.5 ГБ
Приватный: Нет (DHT включён)
.torrent скачан  0
Как залить торрент? | Как скачать Torrent? | Как смотреть и слушать онлайн?  


     Отправить личное сообщение
   
Страница 1 из 1
Показать сообщения за:  Поле сортировки  
Начать новую тему Ответить на тему

   Похожие торренты   Автор   Ответы   Просмотры   Последнее сообщение 
В этой теме нет новых непрочитанных сообщений. Скачать торрент Полной грудью / Breathe In (2013) BDRip-AVC | L1

в форуме Драмы, Мелодрамы, Размер: 1.28 ГБ, Здоровье: 0%

Anonymous

0
0|0

19
0

21 фев 2014, 21:39

Anonymous Перейти к последнему сообщению

В этой теме нет новых непрочитанных сообщений. Скачать торрент Полной грудью / Breathe In (2013) BDRip | L1

в форуме Драмы, Мелодрамы, Размер: 1.26 ГБ, Здоровье: 0%

Anonymous

0
0|0

19
0

21 фев 2014, 21:35

Anonymous Перейти к последнему сообщению

В этой теме нет новых непрочитанных сообщений. Скачать торрент Проверен [iPad] Полной грудью / Breathe In (Дрэйк Доремус / Drake Doremus ) [2013, США, драма, мелодрама, HDRip, SD (576p)] VO + Original

в форуме Фильмы для iPod, iPhone, iPad, Размер: 1.68 ГБ, Здоровье: 100%

Гость

0
5|1

27
0

18 май 2015, 10:39

Гость Перейти к последнему сообщению

В этой теме нет новых непрочитанных сообщений. Скачать торрент Проверен (Pop) Hilary Duff - Breathe In. Breathe Out. (Deluxe Version) - 2015, FLAC (tracks+.cue), lossless

в форуме Зарубежная музыка, Размер: 365.29 МБ, Здоровье: 0%

Anonymous

0
0|0

24
0

12 авг 2016, 20:10

Anonymous Перейти к последнему сообщению

В этой теме нет новых непрочитанных сообщений. Скачать торрент Проверен (Pop) [CD] Hilary Duff - Breathe In. Breathe Out. (Japan Version) - 2015, FLAC (image+.cue), lossless

в форуме Зарубежная музыка, Размер: 638.71 МБ, Здоровье: 100%

Anonymous

0
2|1

5
0

16 авг 2016, 22:57

Anonymous Перейти к последнему сообщению



Сейчас этот форум просматривают: нет зарегистрированных пользователей и гости: 1


Вы не можете начинать темы
Вы не можете отвечать на сообщения
Вы не можете редактировать свои сообщения
Вы не можете удалять свои сообщения
Вы не можете добавлять вложения

Перейти:  

!ВНИМАНИЕ!
 Ресурс не предоставляет электронные версии произведений, а занимается лишь коллекционированием и каталогизацией ссылок, присылаемых и публикуемых на форуме нашими читателями. Если вы являетесь правообладателем какого-либо представленного материала и не желаете чтобы ссылка на него находилась в нашем каталоге, свяжитесь с нами и мы незамедлительно удалим её. Файлы для обмена на трекере предоставлены пользователями сайта, и администрация не несёт ответственности за их содержание. Просьба не заливать файлы, защищенные авторскими правами, а также файлы нелегального содержания!