На всех торрентах на трекере установлена скидка на скачивание в размере 100 процентов(а).
 Возможность скачивания торрента НЕ зависит от ограничений при низком ратио, низком аплоаде, требуемом ратио или требуемом аплоаде.


Начать новую тему Ответить на тему
Статистика раздачи
Размер: 5.25 ГБ | Добавлен: 09 мар 2014, 08:58 | Скачали: 0
Сидеров: 0  [0 байт/сек]    Личеров: 0  [0 байт/сек]
Пред. тема | След. тема 

Автор
Сообщение

СообщениеДобавлено: 09 мар 2014, 08:58 

Вкратце:
Юджин Браун только что вышел из тюрьмы, где отсидел 17 лет за вооружённое ограбление. Теперь у него мало друзей, совсем нет денег, и ему пришлось работать уборщиком в школе, в которой ученики - "просто наказание". Однажды директор попросила его подежурить в группе продлённого дня. Желая чем-нибудь занять ребят, Юджин начинает учить их игре в шахматы. Криминальная сторона жизни напоминает Юджину о себе, но он помнит, что в жизни, как и в шахматах, нужно думать, прежде чем делать ход.


Название: Жизнь короля
Оригинальное название: Life of a King
Год выхода: 2013
Жанр: драма, криминал
Режиссер: Джейк Голдбергер

В ролях: Кьюба Гудинг мл., Деннис Хейсбёрт, Лиза Гэй Хэмилтон, Тьюрстон Хилл, Чиди Аджуфо, Рики Браун, Буда Карлтон Бёрд, Джим Кэллоуэй





Выпущено: США
Продолжительность: 01:41:27
Озвучивание: Любительское (одноголосое) [barin101]


Формат: MKV
Качество: BDRip 720p [DON]
Видео: 6433 kb/s, 1280х720
Аудио: Russian: AC3, 192 kb/s (2 ch) / English: AC3, 640 kb/s (6 ch)
Субтитры: English
Дополнительно: Сохранены оригинальные чаптеры как на Blu-Ray

Скачать: Сэмпл

Релиз группы:



Общее
Life.of.a.King.2013.Blu.Ray.720p.CINEMANIA.mkv
Формат : Matroska
Версия формата : Version 4 / Version 2
Размер файла : 5,25 Гбайт
Продолжительность : 1 ч. 41 м.
Общий поток : 7412 Кбит/сек
Название фильма : Release Group CINEMANIA
Дата кодирования : UTC 2014-03-08 21:27:53
Программа кодирования : mkvmerge v6.8.0 ('Theme for Great Cities') 64bit built on Mar 2 2014 21:34:26
Библиотека кодирования : libebml v1.3.0 + libmatroska v1.4.1

Видео
Идентификатор : 1
Формат : AVC
Формат/Информация : Advanced Video Codec
Профиль формата : High@L4.1
Параметр CABAC формата : Да
Параметр ReFrames формата : 9 кадров
Идентификатор кодека : V_MPEG4/ISO/AVC
Продолжительность : 1 ч. 41 м.
Битрейт : 6433 Кбит/сек
Ширина : 1280 пикселей
Высота : 720 пикселей
Соотношение сторон : 16:9
Режим частоты кадров : Постоянный
Частота кадров : 23,976 кадра/сек
Цветовое пространство : YUV
Субдискретизация насыщенности : 4:2:0
Битовая глубина : 8 бит
Тип развёртки : Прогрессивная
Бит/(Пиксели*Кадры) : 0.291
Размер потока : 4,56 Гбайт (87%)
Заголовок : Release Group CINEMANIA
Библиотека кодирования : x264 core 140 r2377kMod 1ca7bb9
Настройки программы : cabac=1 / ref=9 / deblock=1:-3:-3 / analyse=0x3:0x133 / me=tesa / subme=10 / psy=1 / fade_compensate=0.00 / psy_rd=0.95:0.00 / mixed_ref=1 / me_range=32 / chroma_me=1 / trellis=2 / 8x8dct=1 / cqm=0 / deadzone=21,11 / fast_pskip=0 / chroma_qp_offset=-2 / threads=12 / lookahead_threads=2 / sliced_threads=0 / nr=0 / decimate=1 / interlaced=0 / bluray_compat=0 / constrained_intra=0 / fgo=0 / bframes=8 / b_pyramid=2 / b_adapt=2 / b_bias=0 / direct=3 / weightb=1 / open_gop=0 / weightp=2 / keyint=241 / keyint_min=23 / scenecut=40 / intra_refresh=0 / rc_lookahead=60 / rc=crf / mbtree=0 / crf=16.9000 / qcomp=0.70 / qpmin=0 / qpmax=69 / qpstep=4 / vbv_maxrate=50000 / vbv_bufsize=62500 / crf_max=0.0 / nal_hrd=none / filler=0 / ip_ratio=1.40 / pb_ratio=1.30 / aq=1:0.70
Язык : English
Default : Да
Forced : Нет

Аудио #1
Идентификатор : 2
Формат : AC-3
Формат/Информация : Audio Coding 3
Расширение режима : CM (complete main)
Параметр Endianness формата : Big
Идентификатор кодека : A_AC3
Продолжительность : 1 ч. 41 м.
Вид битрейта : Постоянный
Битрейт : 192 Кбит/сек
Каналы : 2 канала
Расположение каналов : Front: L R
Частота : 48,0 КГц
Битовая глубина : 16 бит
Метод сжатия : С потерями
Размер потока : 139 Мбайт (3%)
Заголовок : barin101
Язык : Russian
Default : Да
Forced : Да

Аудио #2
Идентификатор : 3
Формат : AC-3
Формат/Информация : Audio Coding 3
Расширение режима : CM (complete main)
Параметр Endianness формата : Big
Идентификатор кодека : A_AC3
Продолжительность : 1 ч. 41 м.
Вид битрейта : Постоянный
Битрейт : 640 Кбит/сек
Каналы : 6 каналов
Расположение каналов : Front: L C R, Side: L R, LFE
Частота : 48,0 КГц
Битовая глубина : 16 бит
Метод сжатия : С потерями
Размер потока : 464 Мбайт (9%)
Язык : English
Default : Нет
Forced : Нет

Текст
Идентификатор : 4
Формат : UTF-8
Идентификатор кодека : S_TEXT/UTF8
Идентификатор кодека/Информация : UTF-8 Plain Text
Язык : English
Default : Нет
Forced : Нет

Меню
00:00:00.000 : :00:00:00.000
00:07:40.377 : :00:07:40.377
00:18:10.715 : :00:18:10.715
00:24:59.832 : :00:24:59.832
00:34:12.259 : :00:34:12.259
00:42:24.417 : :00:42:24.417
00:50:49.088 : :00:50:49.088
00:59:20.140 : :00:59:20.140
01:07:08.524 : :01:07:08.524
01:16:46.143 : :01:16:46.143
01:28:19.127 : :01:28:19.127
01:37:48.946 : :01:37:48.946
загрузка...
Правила, инструкции, FAQ!!!
Торрент  Добавлен [09 мар 2014, 08:58] Скачать торрент
Скачать торрент
[ Размер 26.83 КБ / Просмотров 11 ]

Статус  
 
Размер  5.25 ГБ
Приватный: Нет (DHT включён)
.torrent скачан  0
Как залить торрент? | Как скачать Torrent? | Как смотреть и слушать онлайн?  


     Отправить личное сообщение
   
Страница 1 из 1
Показать сообщения за:  Поле сортировки  
Начать новую тему Ответить на тему

   Похожие торренты   Автор   Ответы   Просмотры   Последнее сообщение 
В этой теме нет новых непрочитанных сообщений. Скачать торрент Жизнь короля / Life of a King (2013) BDRip 1080p | L1

в форуме 720p | 1080p, Размер: 8.08 ГБ, Здоровье: 0%

Anonymous

0
0|0

35
0

09 мар 2014, 08:54

Anonymous Перейти к последнему сообщению

В этой теме нет новых непрочитанных сообщений. Скачать торрент Проверен Жизнь дерьмо / Life Stinks (1991) BDRip 720p | P

в форуме 720p | 1080p, Размер: 3 ГБ, Здоровье: 100%

Гость

0
120|61

68
97

25 июл 2015, 22:22

Гость Перейти к последнему сообщению

В этой теме нет новых непрочитанных сообщений. Скачать торрент Проверен Водная жизнь / The Life Aquatic with Steve Zissou (2004) BDRip 720p | P

в форуме 720p | 1080p, Размер: 3.1 ГБ, Здоровье: 100%

Anonymous

0
11|0

23
303

12 июл 2014, 21:22

Anonymous Перейти к последнему сообщению

В этой теме нет новых непрочитанных сообщений. Скачать торрент Проверен Во имя короля 2 / In the Name of the King 2: Two Worlds (2011) BDRip

в форуме Фантастика, Фэнтези, Размер: 1.45 ГБ, Здоровье: 100%

Anonymous

0
23|1

60
69

10 июл 2014, 21:12

Anonymous Перейти к последнему сообщению

В этой теме нет новых непрочитанных сообщений. Скачать торрент Невероятная жизнь Уолтера Митти / The Secret Life of Walter Mitty (2013) WEB-DL 720p | Звук с TS

в форуме 720p | 1080p, Размер: 3.65 ГБ, Здоровье: 0%

Anonymous

0
0|0

49
0

18 мар 2014, 19:55

Anonymous Перейти к последнему сообщению



Сейчас этот форум просматривают: Google [Bot] и гости: 1


Вы не можете начинать темы
Вы не можете отвечать на сообщения
Вы не можете редактировать свои сообщения
Вы не можете удалять свои сообщения
Вы не можете добавлять вложения

Перейти:  

!ВНИМАНИЕ!
 Ресурс не предоставляет электронные версии произведений, а занимается лишь коллекционированием и каталогизацией ссылок, присылаемых и публикуемых на форуме нашими читателями. Если вы являетесь правообладателем какого-либо представленного материала и не желаете чтобы ссылка на него находилась в нашем каталоге, свяжитесь с нами и мы незамедлительно удалим её. Файлы для обмена на трекере предоставлены пользователями сайта, и администрация не несёт ответственности за их содержание. Просьба не заливать файлы, защищенные авторскими правами, а также файлы нелегального содержания!