На всех торрентах на трекере установлена скидка на скачивание в размере 100 процентов(а).
 Возможность скачивания торрента НЕ зависит от ограничений при низком ратио, низком аплоаде, требуемом ратио или требуемом аплоаде.


Начать новую тему Ответить на тему
Статистика раздачи
Размер: 6.62 ГБ | Добавлен: 25 дек 2012, 18:44 | Скачали: 0
Сидеров: 0  [0 байт/сек]    Личеров: 0  [0 байт/сек]
Пред. тема | След. тема 

Автор
Сообщение

СообщениеДобавлено: 25 дек 2012, 18:43 

Название: Судья Дредд 3D
Оригинальное название: Dredd 3D
Год выхода: 2012
Жанр: фантастика, боевик
Режиссер: Пит Трэвис
В ролях: Карл Урбан, Оливия Тирлби, Лина Хиди, Вуд Харрис, Рэйчел Вуд, Андил Мнгади, Портес Ксандо Стинкамп, Джейсон Коуп, Эмма Бреши, Рэки Айола

О фильме:
Будущее не столь красочно и великолепно, каким его представляют современные люди. Через несколько столетий человечество окажется на грани самоуничтожения, захлёбываясь в кровавых преступлениях, смертельных грехах и беспорядочных убийствах. Старую систему правосудия будет невозможно использовать — анархия, всеобщие беспорядки вынуждают ещё сохранившуюся власть, тем не менее, потерявшую всякий авторитет и легитимность, пойти на отчаянные крайние меры и ввести институт Судей — универсальных полицейских, правоприменителей, а по совместительству — и прокуроров, которые упростили бы весь процесс задержания, следствия и судебных тяжб, совмещая в одном лице все должности блюстителей и защитников правопорядка.



Выпущено: США, Великобритания, Индия / DNA Films, IM Global, Reliance Big Entertainment
Продолжительность: 01:32:52
Озвучивание: Дублированное [звук с TS]

Формат: MKV(H.264)
Качество: BDRip 720p
Видео: 8281 kb/s, 1920x800
Аудио: Russian: MP3, 128 kb/s (2 ch) / English: DTS, 1510 kb/s (6 ch)



General
Unique ID : 214551075691501600552971093942881634671 (0xA16908BC94074CB783D80EE7889E496F)
Complete name : F:FilmsНовоеdredd.2012.1080p.rus.eng.mkv
Format : Matroska
Format version : Version 4 / Version 2
File size : 6.62 GiB
Duration : 1h 35mn
Overall bit rate : 9 881 Kbps
Encoded date : UTC 2010-02-22 21:41:31
Writing application : mkvmerge v5.9.0 ('On The Loose') built on Dec 9 2012 15:37:01
Writing library : libebml v1.3.0 + libmatroska v1.4.0

Video
ID : 1
Format : AVC
Format/Info : Advanced Video Codec
Format profile : High@L4.1
Format settings, CABAC : Yes
Format settings, ReFrames : 5 frames
Codec ID : V_MPEG4/ISO/AVC
Duration : 1h 35mn
Bit rate : 8 281 Kbps
Width : 1 920 pixels
Height : 800 pixels
Display aspect ratio : 2.40:1
Frame rate mode : Constant
Frame rate : 23.976 fps
Color space : YUV
Chroma subsampling : 4:2:0
Bit depth : 8 bits
Scan type : Progressive
Bits/(Pixel*Frame) : 0.225
Stream size : 5.39 GiB (81%)
Writing library : x264 core 129 r2230 1cffe9f
Encoding settings : cabac=1 / ref=5 / deblock=1:0:0 / analyse=0x3:0x133 / me=umh / subme=7 / psy=1 / psy_rd=1.00:0.00 / mixed_ref=1 / me_range=16 / chroma_me=1 / trellis=1 / 8x8dct=1 / cqm=0 / deadzone=21,11 / fast_pskip=0 / chroma_qp_offset=-2 / threads=12 / lookahead_threads=2 / sliced_threads=0 / nr=0 / decimate=1 / interlaced=0 / bluray_compat=0 / constrained_intra=0 / bframes=3 / b_pyramid=2 / b_adapt=1 / b_bias=0 / direct=1 / weightb=1 / open_gop=0 / weightp=2 / keyint=250 / keyint_min=23 / scenecut=40 / intra_refresh=0 / rc_lookahead=40 / rc=2pass / mbtree=1 / bitrate=8281 / ratetol=1.0 / qcomp=0.60 / qpmin=0 / qpmax=69 / qpstep=4 / cplxblur=20.0 / qblur=0.5 / ip_ratio=1.40 / aq=1:1.00
Language : English
Default : Yes
Forced : No

Audio #1
ID : 2
Format : MPEG Audio
Format version : Version 1
Format profile : Layer 3
Codec ID : A_MPEG/L3
Codec ID/Hint : MP3
Duration : 1h 35mn
Bit rate mode : Constant
Bit rate : 128 Kbps
Channel(s) : 2 channels
Sampling rate : 44.1 KHz
Compression mode : Lossy
Stream size : 87.8 MiB (1%)
Language : Russian
Default : Yes
Forced : Yes

Audio #2
ID : 3
Format : DTS
Format/Info : Digital Theater Systems
Mode : 16
Format settings, Endianness : Big
Codec ID : A_DTS
Duration : 1h 35mn
Bit rate mode : Constant
Bit rate : 1 509 Kbps
Channel(s) : 6 channels
Channel positions : Front: L C R, Side: L R, LFE
Sampling rate : 48.0 KHz
Bit depth : 24 bits
Compression mode : Lossy
Stream size : 1.01 GiB (15%)
Language : English
Default : No
Forced : No

Text #1
ID : 4
Format : UTF-8
Codec ID : S_TEXT/UTF8
Codec ID/Info : UTF-8 Plain Text
Language : English
Default : No
Forced : No

Text #2
ID : 5
Format : UTF-8
Codec ID : S_TEXT/UTF8
Codec ID/Info : UTF-8 Plain Text
Language : English
Default : No
Forced : No

Menu
00:00:00.000 : en:00:00:00.000
00:05:43.552 : en:00:05:43.552
00:08:14.661 : en:00:08:14.661
00:14:17.356 : en:00:14:17.356
00:19:42.681 : en:00:19:42.681
00:24:09.323 : en:00:24:09.323
00:27:21.056 : en:00:27:21.056
00:36:01.284 : en:00:36:01.284
00:39:49.012 : en:00:39:49.012
00:48:26.946 : en:00:48:26.946
00:54:39.651 : en:00:54:39.651
01:00:57.237 : en:01:00:57.237
01:06:30.570 : en:01:06:30.570
01:12:01.651 : en:01:12:01.651
01:20:10.264 : en:01:20:10.264
01:27:00.382 : en:01:27:00.382






загрузка...
Правила, инструкции, FAQ!!!
Торрент  Добавлен [25 дек 2012, 18:44] Скачать торрент
Скачать торрент
[ Размер 16.97 КБ / Просмотров 12 ]

Статус
Проверен 
 
Размер  6.62 ГБ
Приватный: Нет (DHT включён)
.torrent скачан  0
Как залить торрент? | Как скачать Torrent? | Как смотреть и слушать онлайн?  


     Отправить личное сообщение
   
Страница 1 из 1
Показать сообщения за:  Поле сортировки  
Начать новую тему Ответить на тему

   Похожие торренты   Автор   Ответы   Просмотры   Последнее сообщение 
В этой теме нет новых непрочитанных сообщений. Скачать торрент Проверен Судья Дредд / Judge Dredd (1995) BDRip

в форуме Фантастика, Фэнтези, Размер: 2.18 ГБ, Здоровье: 0%

Anonymous

0
0|0

85
0

19 сен 2014, 08:00

Anonymous Перейти к последнему сообщению

В этой теме нет новых непрочитанных сообщений. Скачать торрент Проверен Судья / The Judge (2014) BDRip [1080p]

в форуме 720p | 1080p, Размер: 11.31 ГБ, Здоровье: 100%

Гость

0
187|99

37
0

14 янв 2015, 23:47

Гость Перейти к последнему сообщению

В этой теме нет новых непрочитанных сообщений. Скачать торрент Проверен Рио 2 / Rio 2 (2014) BDRip 1080p | Чистый звук

в форуме 720p | 1080p, Размер: 8.19 ГБ, Здоровье: 0%

Anonymous

0
0|0

271
1

28 июн 2014, 21:28

Anonymous Перейти к последнему сообщению

В этой теме нет новых непрочитанных сообщений. Ной / Noah (2014) BDRip 1080p | Чистый звук

в форуме Новинки кино, Размер: 10.2 ГБ, Здоровье: 0%

Anonymous

0
0|0

277
1

07 июл 2014, 15:19

Anonymous Перейти к последнему сообщению

В этой теме нет новых непрочитанных сообщений. Годзилла / Godzilla (2014) BDRip 1080p | Чистый звук

в форуме Новинки кино, Размер: 5.69 ГБ, Здоровье: 0%

Anonymous

0
0|0

272
1

26 авг 2014, 19:57

Anonymous Перейти к последнему сообщению



Сейчас этот форум просматривают: нет зарегистрированных пользователей и гости: 1


Вы не можете начинать темы
Вы не можете отвечать на сообщения
Вы не можете редактировать свои сообщения
Вы не можете удалять свои сообщения
Вы не можете добавлять вложения

Перейти:  

!ВНИМАНИЕ!
 Ресурс не предоставляет электронные версии произведений, а занимается лишь коллекционированием и каталогизацией ссылок, присылаемых и публикуемых на форуме нашими читателями. Если вы являетесь правообладателем какого-либо представленного материала и не желаете чтобы ссылка на него находилась в нашем каталоге, свяжитесь с нами и мы незамедлительно удалим её. Файлы для обмена на трекере предоставлены пользователями сайта, и администрация не несёт ответственности за их содержание. Просьба не заливать файлы, защищенные авторскими правами, а также файлы нелегального содержания!