На всех торрентах на трекере установлена скидка на скачивание в размере 100 процентов(а).
 Возможность скачивания торрента НЕ зависит от ограничений при низком ратио, низком аплоаде, требуемом ратио или требуемом аплоаде.


Начать новую тему Ответить на тему
Статистика раздачи
Размер: 7.94 ГБ | Добавлен: 08 мар 2014, 10:05 | Скачали: 452
Сидеров: 40  [0 байт/сек]    Личеров: 2  [0 байт/сек]
Пред. тема | След. тема 

Автор
Сообщение

СообщениеДобавлено: 08 мар 2014, 10:05 

Информация о фильме
    Русское название: День, когда Земля остановилась
    Оригинальное название: The Day the Earth Stood Still
    Год выхода: 2008
    Жанр: Фантастика, триллер, драма
    Режиссер: Скотт Дерриксон
    Выпущено: США
    Продолжительность: 01:43:35
    Перевод: Дублированный
    В ролях: Киану Ривз, Дженнифер Коннелли, Кэти Бэйтс, Джейден Смит, Джон Клиз, Джон Хэмм, Кайл Чандлер, Роберт Неппер, Джеймс Хон, Джон Ротмен


Сюжет фильма
    Римейк фантастического блокбастера 1951 года. Оригинал рассказывал об инопланетянине, который прибыл на нашу планету с предупреждением: если не будут прекращены войны и разрушения, Земля будет уничтожена извне, поскольку представляет угрозу для остальной Вселенной!


Файл
    Качество: BDRip 1080p (DVD9) (исходник Blu-ray Remux)
    Видео: 1920x816, 9896 Кбит/сек, 23,976 кадр/сек, AVC, x264, High@L4.1, 2.35:1, 0.263 Бит/[Пиксели*Кадры], 2pass
    Аудио 1: AC-3, 448 Кбит/сек, 6 канала(ов), 48,0 КГц - Дублированный / Русский
    Аудио 2: AC-3, 640 Кбит/сек, 6 канала(ов), 48,0 КГц - Оригинал / Английский
    Субтитры: Русские | Полные / Форсированные
    Чаптеры: Есть



Релиз Группа | Автор Рипа:



Format : Matroska
Format version : Version 4 / Version 2
File size : 7.94 GiB
Duration : 1h 43mn
Overall bit rate : 11.0 Mbps
Movie name : День, когда Земля остановилась.(2008).BDRip.1080p.(DVD9).[NoLimits-Team]
Encoded date : UTC 2013-07-01 05:05:59
Writing application : mkvmerge v6.3.0 ('You can't stop me!') built on Jun 28 2013 20:09:41
Writing library : libebml v1.3.0 + libmatroska v1.4.0

Video
ID : 1
Format : AVC
Format/Info : Advanced Video Codec
Format profile : High@L4.1
Format settings, CABAC : Yes
Format settings, ReFrames : 5 frames
Codec ID : V_MPEG4/ISO/AVC
Duration : 1h 43mn
Bit rate : 9 896 Kbps
Width : 1 920 pixels
Height : 816 pixels
Display aspect ratio : 2.35:1
Frame rate mode : Constant
Frame rate : 23.976 fps
Color space : YUV
Chroma subsampling : 4:2:0
Bit depth : 8 bits
Scan type : Progressive
Bits/(Pixel*Frame) : 0.263
Stream size : 7.00 GiB (88%)
Title : День, когда Земля остановилась.(2008).BDRip.1080p.(DVD9).[NoLimits-Team]
Writing library : x264 core 133 r2334 a3ac64b
Encoding settings : cabac=1 / ref=5 / deblock=1:0:0 / analyse=0x3:0x113 / me=umh / subme=11 / psy=1 / psy_rd=1.00:0.00 / mixed_ref=1 / me_range=64 / chroma_me=1 / trellis=2 / 8x8dct=1 / cqm=0 / deadzone=21,11 / fast_pskip=0 / chroma_qp_offset=-2 / threads=9 / lookahead_threads=2 / sliced_threads=0 / nr=0 / decimate=1 / interlaced=0 / bluray_compat=0 / constrained_intra=0 / bframes=12 / b_pyramid=2 / b_adapt=2 / b_bias=0 / direct=3 / weightb=1 / open_gop=0 / weightp=2 / keyint=240 / keyint_min=23 / scenecut=40 / intra_refresh=0 / rc_lookahead=60 / rc=2pass / mbtree=1 / bitrate=9896 / ratetol=2.0 / qcomp=0.60 / qpmin=0 / qpmax=51 / qpstep=4 / cplxblur=20.0 / qblur=0.5 / ip_ratio=1.40 / aq=1:1.00
Language : English
Default : Yes
Forced : No

Audio #1
ID : 2
Format : AC-3
Format/Info : Audio Coding 3
Mode extension : CM (complete main)
Format settings, Endianness : Big
Codec ID : A_AC3
Duration : 1h 43mn
Bit rate mode : Constant
Bit rate : 448 Kbps
Channel(s) : 6 channels
Channel positions : Front: L C R, Side: L R, LFE
Sampling rate : 48.0 KHz
Bit depth : 16 bits
Compression mode : Lossy
Stream size : 332 MiB (4%)
Title : Дублированный
Language : Russian
Default : Yes
Forced : No

Audio #2
ID : 3
Format : AC-3
Format/Info : Audio Coding 3
Mode extension : CM (complete main)
Format settings, Endianness : Big
Codec ID : A_AC3
Duration : 1h 43mn
Bit rate mode : Constant
Bit rate : 640 Kbps
Channel(s) : 6 channels
Channel positions : Front: L C R, Side: L R, LFE
Sampling rate : 48.0 KHz
Bit depth : 16 bits
Compression mode : Lossy
Stream size : 474 MiB (6%)
Title : Английский / Оригинал
Language : English
Default : No
Forced : No

Text #1
ID : 4
Format : UTF-8
Codec ID : S_TEXT/UTF8
Codec ID/Info : UTF-8 Plain Text
Title : Русские (Форсированные)
Language : Russian
Default : Yes
Forced : No

Text #2
ID : 5
Format : UTF-8
Codec ID : S_TEXT/UTF8
Codec ID/Info : UTF-8 Plain Text
Title : Русские (полные)
Language : Russian
Default : No
Forced : No

Menu
00:00:00.000 : :Chapter 01
00:05:25.992 : :Chapter 02
00:11:53.421 : :Chapter 03
00:15:46.946 : :Chapter 04
00:21:24.908 : :Chapter 05
00:24:10.031 : :Chapter 06
00:28:40.301 : :Chapter 07
00:31:35.560 : :Chapter 08
00:34:20.641 : :Chapter 09
00:37:50.643 : :Chapter 10
00:41:40.748 : :Chapter 11
00:44:27.373 : :Chapter 12
00:47:33.308 : :Chapter 13
00:49:05.692 : :Chapter 14
00:51:20.368 : :Chapter 15
00:54:38.483 : :Chapter 16
00:59:25.520 : :Chapter 17
01:01:04.744 : :Chapter 18
01:06:44.000 : :Chapter 19
01:10:50.329 : :Chapter 20
01:13:06.131 : :Chapter 21
01:17:41.365 : :Chapter 22
01:21:53.742 : :Chapter 23
01:24:12.422 : :Chapter 24
01:27:24.530 : :Chapter 25
01:29:39.082 : :Chapter 26
01:34:45.680 : :Chapter 27
01:38:32.907 : :Chapter 28


загрузка...
Правила, инструкции, FAQ!!!
Торрент  Добавлен [08 мар 2014, 10:05] Скачать торрент
Скачать торрент
[ Размер 40.24 КБ / Просмотров 8 ]

Статус  
 
Размер  7.94 ГБ
Приватный: Нет (DHT включён)
.torrent скачан  452
Как залить торрент? | Как скачать Torrent? | Как смотреть и слушать онлайн?  


     Отправить личное сообщение
   
Страница 1 из 1
Показать сообщения за:  Поле сортировки  
Начать новую тему Ответить на тему

   Похожие торренты   Автор   Ответы   Просмотры   Последнее сообщение 
В этой теме нет новых непрочитанных сообщений. Скачать торрент Проверен День, когда Земля остановилась (The Day the Earth Stood Still) (2008) [AVI | 320х132] <DVDRip>

в форуме Видео для смартфонов и КПК, Размер: 245.9 МБ, Здоровье: 100%

Anonymous

0
2|1

23
0

25 окт 2014, 23:11

Anonymous Перейти к последнему сообщению

В этой теме нет новых непрочитанных сообщений. Скачать торрент День когда Земля остановилась / The Day the Earth Stood Stil (2008) HDRip-AVC | AVC

в форуме 720p | 1080p, Размер: 1.45 ГБ, Здоровье: 0%

Anonymous

0
0|0

29
0

27 янв 2014, 09:55

Anonymous Перейти к последнему сообщению

В этой теме нет новых непрочитанных сообщений. Скачать торрент Проверен Другая Земля / Another Earth (2011) BDRip 1080p

в форуме 720p | 1080p, Размер: 7.78 ГБ, Здоровье: 98%

Гость

0
260|264

120
178

14 июн 2015, 17:15

Гость Перейти к последнему сообщению

В этой теме нет новых непрочитанных сообщений. Скачать торрент Проверен Другая Земля / Another Earth (2011) BDRip | Лицензия

в форуме Фантастика, Фэнтези, Размер: 1.46 ГБ, Здоровье: 100%

Anonymous

0
46|6

76
467

25 сен 2014, 16:36

Anonymous Перейти к последнему сообщению

В этой теме нет новых непрочитанных сообщений. Скачать торрент Проверен Побег с планеты Земля в 3Д / Escape from Planet Earth 3D (Кэллан Брукнер / Cal Brunker) [2013, мультфильм, фантастика, комедия, приключения, семейный, Blu-ray Disc 1080p] [RUS] BD3D

в форуме 3D Мультфильмы, Размер: 20.31 ГБ, Здоровье: 0%

Anonymous

0
0|0

1
0

07 сен 2016, 17:35

Anonymous Перейти к последнему сообщению



Сейчас этот форум просматривают: нет зарегистрированных пользователей и гости: 3


Вы не можете начинать темы
Вы не можете отвечать на сообщения
Вы не можете редактировать свои сообщения
Вы не можете удалять свои сообщения
Вы не можете добавлять вложения

Перейти:  

!ВНИМАНИЕ!
 Ресурс не предоставляет электронные версии произведений, а занимается лишь коллекционированием и каталогизацией ссылок, присылаемых и публикуемых на форуме нашими читателями. Если вы являетесь правообладателем какого-либо представленного материала и не желаете чтобы ссылка на него находилась в нашем каталоге, свяжитесь с нами и мы незамедлительно удалим её. Файлы для обмена на трекере предоставлены пользователями сайта, и администрация не несёт ответственности за их содержание. Просьба не заливать файлы, защищенные авторскими правами, а также файлы нелегального содержания!