На всех торрентах на трекере установлена скидка на скачивание в размере 100 процентов(а).
 Возможность скачивания торрента НЕ зависит от ограничений при низком ратио, низком аплоаде, требуемом ратио или требуемом аплоаде.


Начать новую тему Ответить на тему
Статистика раздачи
Размер: 1.75 ГБ | Добавлен: 08 мар 2014, 09:55 | Скачали: 0
Сидеров: 0  [0 байт/сек]    Личеров: 0  [0 байт/сек]
Пред. тема | След. тема 

Автор
Сообщение

СообщениеДобавлено: 08 мар 2014, 09:55 

Название: Довольно слов
Оригинальное название: Enough Said
Год выпуска: 2013
Жанр: Драма, мелодрама, комедия
Выпущено: США, Fox Searchlight Pictures
Режиссер: Николь Холофсенер

В ролях: Джулия Луис-Дрейфус, Джеймс Гандольфини, Кэтрин Кинер, Тони Коллетт, Бен Фэлкуон, Ленни Лофтин, Джессика Ст. Клер, Кристофер Николас Смит, Трэйси Фэирэуэй, Михаэлла Уоткинс

О фильме: Ева развелась и столкнулась со сложным моментом в жизни — что делать дальше? Она знакомится с другим обаятельным мужчиной, который оказывается бывшим мужем женщины, которая всегда была для нее идеалом.



Качество: BDRip (AVC) (Blu-Ray Remux (1080p))
Видео: MPEG-4 AVC, 1795 Кбит/с, 1024x552
Аудио: Русский, английский (AC3, 6 ch, 448 Кбит/с)
Продолжительность: 01:32:59
Перевод: Профессиональный многоголосый закадровый
Субтитры: Русские, Английские (полные, SDH, SDH Colored)

General
Unique ID : 233244214217700523295104193404453675168 (0xAF79339F72072024917D31EB858260A0)
Complete name : C:Dovolno.Slov.2013.D.BDRip.AVC.ExKinoRay.mkv
Format : Matroska
Format version : Version 2
File size : 1.75 GiB
Duration : 1h 32mn
Overall bit rate : 2 693 Kbps
Movie name : Довольно слов from ExKinoRay
Encoded date : UTC 2014-03-07 21:09:25
Writing application : mkvmerge v4.9.1 ('Ich will') built on Jul 11 2011 23:53:15
Writing library : libebml v1.2.1 + libmatroska v1.1.1

Video
ID : 1
Format : AVC
Format/Info : Advanced Video Codec
Format profile : High@L4.1
Format settings, CABAC : Yes
Format settings, ReFrames : 9 frames
Codec ID : V_MPEG4/ISO/AVC
Duration : 1h 32mn
Bit rate : 1 795 Kbps
Width : 1 024 pixels
Height : 552 pixels
Display aspect ratio : 1.85:1
Frame rate mode : Constant
Frame rate : 23.976 fps
Color space : YUV
Chroma subsampling : 4:2:0
Bit depth : 8 bits
Scan type : Progressive
Bits/(Pixel*Frame) : 0.132
Stream size : 1.13 GiB (65%)
Title : Enigma
Writing library : x264 core 116 r2044 392e762
Encoding settings : cabac=1 / ref=9 / deblock=1:-2:2 / analyse=0x3:0x113 / me=umh / subme=10 / psy=1 / psy_rd=1.00:0.20 / mixed_ref=1 / me_range=32 / chroma_me=1 / trellis=2 / 8x8dct=1 / cqm=0 / deadzone=21,11 / fast_pskip=0 / chroma_qp_offset=-3 / threads=12 / sliced_threads=0 / nr=0 / decimate=0 / interlaced=0 / bluray_compat=0 / constrained_intra=0 / bframes=8 / b_pyramid=2 / b_adapt=2 / b_bias=0 / direct=3 / weightb=1 / open_gop=0 / weightp=2 / keyint=250 / keyint_min=23 / scenecut=40 / intra_refresh=0 / rc_lookahead=50 / rc=2pass / mbtree=1 / bitrate=1795 / ratetol=1.0 / qcomp=0.60 / qpmin=0 / qpmax=69 / qpstep=4 / cplxblur=20.0 / qblur=0.5 / ip_ratio=1.40 / aq=1:1.00
Default : Yes
Forced : No

Audio #1
ID : 2
Format : AC-3
Format/Info : Audio Coding 3
Mode extension : CM (complete main)
Format settings, Endianness : Big
Codec ID : A_AC3
Duration : 1h 32mn
Bit rate mode : Constant
Bit rate : 448 Kbps
Channel(s) : 6 channels
Channel positions : Front: L C R, Side: L R, LFE
Sampling rate : 48.0 KHz
Bit depth : 16 bits
Compression mode : Lossy
Stream size : 298 MiB (17%)
Title : Профессиональный многоголосый (лицензия)
Language : Russian
Default : No
Forced : No

Audio #2
ID : 3
Format : AC-3
Format/Info : Audio Coding 3
Mode extension : CM (complete main)
Format settings, Endianness : Big
Codec ID : A_AC3
Duration : 1h 32mn
Bit rate mode : Constant
Bit rate : 448 Kbps
Channel(s) : 6 channels
Channel positions : Front: L C R, Side: L R, LFE
Sampling rate : 48.0 KHz
Bit depth : 16 bits
Compression mode : Lossy
Stream size : 298 MiB (17%)
Language : English
Default : No
Forced : No

Text #1
ID : 4
Format : UTF-8
Codec ID : S_TEXT/UTF8
Codec ID/Info : UTF-8 Plain Text
Language : Russian
Default : No
Forced : No

Text #2
ID : 5
Format : UTF-8
Codec ID : S_TEXT/UTF8
Codec ID/Info : UTF-8 Plain Text
Title : SDH (Colored)
Language : English
Default : No
Forced : No

Text #3
ID : 6
Format : UTF-8
Codec ID : S_TEXT/UTF8
Codec ID/Info : UTF-8 Plain Text
Title : SDH
Language : English
Default : No
Forced : No

Text #4
ID : 7
Format : UTF-8
Codec ID : S_TEXT/UTF8
Codec ID/Info : UTF-8 Plain Text
Language : English
Default : No
Forced : No

Menu
00:00:00.000 : en:00:00:00.000
00:02:45.999 : en:00:02:45.999
00:07:17.145 : en:00:07:17.145
00:11:07.458 : en:00:11:07.458
00:16:07.133 : en:00:16:07.133
00:18:04.208 : en:00:18:04.208
00:20:06.664 : en:00:20:06.664
00:26:21.413 : en:00:26:21.413
00:28:43.472 : en:00:28:43.472
00:30:44.468 : en:00:30:44.468
00:32:58.435 : en:00:32:58.435
00:35:34.174 : en:00:35:34.174
00:41:21.479 : en:00:41:21.479
00:44:06.477 : en:00:44:06.477
00:47:11.287 : en:00:47:11.287
00:49:23.002 : en:00:49:23.002
00:54:15.836 : en:00:54:15.836
00:57:41.375 : en:00:57:41.375
00:59:11.840 : en:00:59:11.840
01:02:03.970 : en:01:02:03.970
01:08:48.499 : en:01:08:48.499
01:11:40.213 : en:01:11:40.213
01:14:36.138 : en:01:14:36.138
01:16:12.443 : en:01:16:12.443
01:20:19.940 : en:01:20:19.940
01:23:41.016 : en:01:23:41.016
01:26:50.914 : en:01:26:50.914
01:30:26.212 : en:01:30:26.212






Релиз от:

Автор релиза:
загрузка...
Правила, инструкции, FAQ!!!
Торрент  Добавлен [08 мар 2014, 09:55] Скачать торрент
Скачать торрент
[ Размер 18.11 КБ / Просмотров 9 ]

Статус  
 
Размер  1.75 ГБ
Приватный: Нет (DHT включён)
.torrent скачан  0
Как залить торрент? | Как скачать Torrent? | Как смотреть и слушать онлайн?  


     Отправить личное сообщение
   
Страница 1 из 1
Показать сообщения за:  Поле сортировки  
Начать новую тему Ответить на тему

   Похожие торренты   Автор   Ответы   Просмотры   Последнее сообщение 
В этой теме нет новых непрочитанных сообщений. Скачать торрент Довольно слов / Enough Said (2013) BDRip 720p | Лицензия

в форуме 720p | 1080p, Размер: 4.86 ГБ, Здоровье: 0%

Anonymous

0
0|0

64
0

13 фев 2014, 23:17

Anonymous Перейти к последнему сообщению

В этой теме нет новых непрочитанных сообщений. Скачать торрент Довольно слов / Enough Said (2013) BDRip 720p | iTunes

в форуме 720p | 1080p, Размер: 4.04 ГБ, Здоровье: 0%

Anonymous

0
0|0

37
0

06 фев 2014, 07:32

Anonymous Перейти к последнему сообщению

В этой теме нет новых непрочитанных сообщений. Скачать торрент Довольно слов / Enough Said (2013) HDRip | iTunes

в форуме Драмы, Мелодрамы, Размер: 1.37 ГБ, Здоровье: 0%

Anonymous

0
0|0

65
0

06 фев 2014, 07:35

Anonymous Перейти к последнему сообщению

В этой теме нет новых непрочитанных сообщений. Скачать торрент Конец света 2013: Апокалипсис по-голливудски / This Is the End (2013) BDRip | Лицензия

в форуме Комедии, Размер: 2.18 ГБ, Здоровье: 0%

Anonymous

0
0|0

35
0

21 янв 2014, 19:13

Anonymous Перейти к последнему сообщению

В этой теме нет новых непрочитанных сообщений. Скачать торрент Любовь без лишних слов [01-02 из 02] (2013) HDTVRip

в форуме Драмы, Мелодрамы, Размер: 2.73 ГБ, Здоровье: 0%

Anonymous

0
0|0

39
0

22 дек 2013, 10:23

Anonymous Перейти к последнему сообщению



Сейчас этот форум просматривают: нет зарегистрированных пользователей и гости: 1


Вы не можете начинать темы
Вы не можете отвечать на сообщения
Вы не можете редактировать свои сообщения
Вы не можете удалять свои сообщения
Вы не можете добавлять вложения

Перейти:  

!ВНИМАНИЕ!
 Ресурс не предоставляет электронные версии произведений, а занимается лишь коллекционированием и каталогизацией ссылок, присылаемых и публикуемых на форуме нашими читателями. Если вы являетесь правообладателем какого-либо представленного материала и не желаете чтобы ссылка на него находилась в нашем каталоге, свяжитесь с нами и мы незамедлительно удалим её. Файлы для обмена на трекере предоставлены пользователями сайта, и администрация не несёт ответственности за их содержание. Просьба не заливать файлы, защищенные авторскими правами, а также файлы нелегального содержания!