На всех торрентах на трекере установлена скидка на скачивание в размере 100 процентов(а).
 Возможность скачивания торрента НЕ зависит от ограничений при низком ратио, низком аплоаде, требуемом ратио или требуемом аплоаде.


Начать новую тему Ответить на тему
Статистика раздачи
Размер: 8.41 ГБ | Добавлен: 08 мар 2014, 09:37 | Скачали: 0
Сидеров: 0  [0 байт/сек]    Личеров: 0  [0 байт/сек]
Пред. тема | След. тема 

Автор
Сообщение

СообщениеДобавлено: 08 мар 2014, 09:37 

Название: Огненная буря
Оригинальное название: Firestorm / Fung bou
Год выхода: 2013
Жанр: боевик, криминал
Режиссер: Алан Юэнь

В ролях: Энди Лау, Ху Цзюнь, Ка Танг Лам, Яо Чэнь

О фильме:
Вооруженные до зубов грабители, средь бела дня совершают дерзкое нападение на бронированный инкассаторский автомобиль. Общественность просто в шоке, расследовать это дело поручают командиру спец-отряда Луи Мин Читу. Он понимает, что взять банду не так просто и идет на хитрость. В этой операции, Луи Мин хочет задействовать одного из заключенных бандитов по имени Синг Понг, если все выгорит, он получит свободу. Плюс к всему, на город с огромной скоростью надвигается шторм, последствия которого могут быть катастрофическими..



Выпущено: Гонконг, Китай
Продолжительность: 01:49:15
Озвучивание: Любительское (двухголосое) [GREEN TEA]


Формат: MKV
Качество: BDRip 1080p [WiKi]
Видео: 10211 kb/s, 1920x804
Аудио: Russian: AC3, 192 kb/s (2 ch) / Chinese: AC3, 640 kb/s (6 ch)
Субтитры: English
Дополнительно: Сохранены оригинальные чаптеры как на Blu-Ray

Скачать: Сэмпл

Релиз группы:



Общее
Firestorm.2013.Blu.Ray.1080p.CINEMANIA.mkv
Формат : Matroska
Версия формата : Version 4 / Version 2
Размер файла : 8,41 Гбайт
Продолжительность : 1 ч. 49 м.
Общий поток : 11,0 Мбит/сек
Название фильма : Release Group CINEMANIA
Дата кодирования : UTC 2014-03-07 21:08:20
Программа кодирования : mkvmerge v6.8.0 ('Theme for Great Cities') 64bit built on Mar 2 2014 21:34:26
Библиотека кодирования : libebml v1.3.0 + libmatroska v1.4.1

Видео
Идентификатор : 1
Формат : AVC
Формат/Информация : Advanced Video Codec
Профиль формата : High@L4.1
Параметр CABAC формата : Да
Параметр ReFrames формата : 5 кадров
Идентификатор кодека : V_MPEG4/ISO/AVC
Продолжительность : 1 ч. 49 м.
Битрейт : 10,2 Мбит/сек
Ширина : 1920 пикселей
Высота : 804 пикселя
Соотношение сторон : 2,40:1
Режим частоты кадров : Постоянный
Частота кадров : 24,000 кадра/сек
Цветовое пространство : YUV
Субдискретизация насыщенности : 4:2:0
Битовая глубина : 8 бит
Тип развёртки : Прогрессивная
Бит/(Пиксели*Кадры) : 0.275
Размер потока : 7,60 Гбайт (90%)
Заголовок : Release Group CINEMANIA
Библиотека кодирования : x264 core 136 r2348+704+51 d1baef6 tMod [8-bit@all X86_64]
Настройки программы : cabac=1 / ref=5 / deblock=1:-3:-3 / analyse=0x3:0x133 / me=umh / subme=11 / psy=1 / fade_compensate=0.00 / psy_rd=1.05:0.00 / mixed_ref=1 / me_range=64 / chroma_me=1 / trellis=2 / 8x8dct=1 / cqm=0 / deadzone=21,11 / fast_pskip=0 / chroma_qp_offset=-2 / threads=12 / lookahead_threads=2 / sliced_threads=0 / nr=0 / decimate=0 / interlaced=0 / bluray_compat=0 / constrained_intra=0 / fgo=0 / bframes=8 / b_pyramid=2 / b_adapt=2 / b_bias=0 / direct=3 / weightb=1 / open_gop=0 / weightp=2 / keyint=250 / keyint_min=24 / scenecut=40 / intra_refresh=0 / rc_lookahead=80 / rc=2pass / mbtree=0 / bitrate=10182 / ratetol=1.0 / qcomp=0.80 / qpmin=0:0:0 / qpmax=69:69:69 / qpstep=4 / cplxblur=20.0 / qblur=0.5 / vbv_maxrate=50000 / vbv_bufsize=50000 / nal_hrd=none / ip_ratio=1.40 / pb_ratio=1.30 / aq=3:0.90 / aq-sensitivity=10.00 / aq-factor=1.00:1.00:1.00 / aq2=0 / aq3=0
Default : Да
Forced : Нет
Коэффициенты матрицы : BT.709

Аудио #1
Идентификатор : 2
Формат : AC-3
Формат/Информация : Audio Coding 3
Расширение режима : CM (complete main)
Параметр Endianness формата : Big
Идентификатор кодека : A_AC3
Продолжительность : 1 ч. 49 м.
Вид битрейта : Постоянный
Битрейт : 192 Кбит/сек
Каналы : 2 канала
Расположение каналов : Front: L R
Частота : 48,0 КГц
Битовая глубина : 16 бит
Метод сжатия : С потерями
Размер потока : 150 Мбайт (2%)
Заголовок : GREEN TEA
Язык : Russian
Default : Да
Forced : Да

Аудио #2
Идентификатор : 3
Формат : AC-3
Формат/Информация : Audio Coding 3
Расширение режима : CM (complete main)
Параметр Endianness формата : Big
Идентификатор кодека : A_AC3
Продолжительность : 1 ч. 49 м.
Вид битрейта : Постоянный
Битрейт : 640 Кбит/сек
Каналы : 6 каналов
Расположение каналов : Front: L C R, Side: L R, LFE
Частота : 48,0 КГц
Битовая глубина : 16 бит
Метод сжатия : С потерями
Размер потока : 500 Мбайт (6%)
Язык : Chinese
Default : Нет
Forced : Нет

Текст
Идентификатор : 4
Формат : UTF-8
Идентификатор кодека : S_TEXT/UTF8
Идентификатор кодека/Информация : UTF-8 Plain Text
Язык : English
Default : Нет
Forced : Нет

Меню
00:00:00.000 : en:00:00:00.000
00:10:54.333 : en:00:10:54.333
00:19:42.417 : en:00:19:42.417
00:26:17.542 : en:00:26:17.542
00:34:20.875 : en:00:34:20.875
00:43:00.875 : en:00:43:00.875
00:52:22.417 : en:00:52:22.417
01:01:43.542 : en:01:01:43.542
01:12:24.625 : en:01:12:24.625
01:19:08.458 : en:01:19:08.458
01:31:32.125 : en:01:31:32.125
01:39:27.083 : en:01:39:27.083
загрузка...
Правила, инструкции, FAQ!!!
Торрент  Добавлен [08 мар 2014, 09:37] Скачать торрент
Скачать торрент
[ Размер 42.61 КБ / Просмотров 4 ]

Статус  
 
Размер  8.41 ГБ
Приватный: Нет (DHT включён)
.torrent скачан  0
Как залить торрент? | Как скачать Torrent? | Как смотреть и слушать онлайн?  


     Отправить личное сообщение
   
Страница 1 из 1
Показать сообщения за:  Поле сортировки  
Начать новую тему Ответить на тему

   Похожие торренты   Автор   Ответы   Просмотры   Последнее сообщение 
В этой теме нет новых непрочитанных сообщений. Скачать торрент Огненная буря / Firestorm / Fung bou (2013) BDRip 720p | L2

в форуме 720p | 1080p, Размер: 4.51 ГБ, Здоровье: 0%

Anonymous

0
0|0

23
0

08 мар 2014, 09:40

Anonymous Перейти к последнему сообщению

В этой теме нет новых непрочитанных сообщений. Скачать торрент Огненная буря / Firestorm / Fung bou (2013) HDTVRip | L2

в форуме Боевики, Размер: 1.19 ГБ, Здоровье: 0%

Anonymous

0
0|0

39
0

31 янв 2014, 18:26

Anonymous Перейти к последнему сообщению

В этой теме нет новых непрочитанных сообщений. Скачать торрент Проверен Ученик мастера / Нулевой Тай-цзи в 3Д / TaiChi Zero 3D (Стивен Фанг / Stephe Fung) [2012, боевик, приключения, BDrip-AVC] Half OverUnder / Вертикальная анаморфная стереопара

в форуме HD-Video в 3D, Размер: 8.4 ГБ, Здоровье: 100%

Anonymous

0
56|19

77
1

10 июл 2014, 16:57

Anonymous Перейти к последнему сообщению

В этой теме нет новых непрочитанных сообщений. Скачать торрент Проверен Стивен Кинг | Буря столетия (2013) [m4b|AAC]

в форуме Аудиокниги (AAC, ALAC), Размер: 143.33 МБ, Здоровье: 100%

Гость

0
3|1

50
1

17 май 2015, 01:00

Гость Перейти к последнему сообщению

В этой теме нет новых непрочитанных сообщений. Скачать торрент Проверен Ледяная комета 3D в 3Д / Bing Fung: Chung Sang Chi Mun / Iceman 3D (Винг-Чеонг Лау / Wing-cheong Law) [2014, Фантастика, Боевик, Комедия, История, BDrip-AVC] DVO-GreenTea, Half OverUnder / Вертикальная анаморфная стереопара

в форуме HD-Video в 3D, Размер: 9.22 ГБ, Здоровье: 100%

Anonymous

0
57|19

53
2

10 июл 2014, 08:19

Anonymous Перейти к последнему сообщению



Сейчас этот форум просматривают: нет зарегистрированных пользователей и гости: 3


Вы не можете начинать темы
Вы не можете отвечать на сообщения
Вы не можете редактировать свои сообщения
Вы не можете удалять свои сообщения
Вы не можете добавлять вложения

Перейти:  

!ВНИМАНИЕ!
 Ресурс не предоставляет электронные версии произведений, а занимается лишь коллекционированием и каталогизацией ссылок, присылаемых и публикуемых на форуме нашими читателями. Если вы являетесь правообладателем какого-либо представленного материала и не желаете чтобы ссылка на него находилась в нашем каталоге, свяжитесь с нами и мы незамедлительно удалим её. Файлы для обмена на трекере предоставлены пользователями сайта, и администрация не несёт ответственности за их содержание. Просьба не заливать файлы, защищенные авторскими правами, а также файлы нелегального содержания!