На всех торрентах на трекере установлена скидка на скачивание в размере 100 процентов(а).
 Возможность скачивания торрента НЕ зависит от ограничений при низком ратио, низком аплоаде, требуемом ратио или требуемом аплоаде.


Начать новую тему Ответить на тему
Статистика раздачи
Размер: 10.06 ГБ | Добавлен: 04 мар 2014, 17:59 | Скачали: 0
Сидеров: 0  [0 байт/сек]    Личеров: 0  [0 байт/сек]
Пред. тема | След. тема 

Автор
Сообщение

СообщениеДобавлено: 04 мар 2014, 17:59 

Вкратце:
В доме, затерянном в горах, женщина с грубо остриженными волосами, синевой вокруг глаз и скулами, обострившимися от месяцев скудной жизни и тяжелого физического труда, ведёт дневник — на оборотной стороне истлевших, потерявших смысл календарей, под надсадное карканье ноябрьских ворон. Не ради удовольствия от письма — чтобы выжить и спастись от безумия. С ней случилось невероятное — она приехала в этот горный дом с друзьями, пожилой парой, в солнечный майский день, чтобы на следующее утро, обеспокоившись исчезновением ушедших на прогулку стариков, обнаружить, что покинуть вершину горы уже невозможно: весь прочий мир отделен от неё невидимой, но непроницаемой стеной. Так женщина осталась одна, в компании домашнего пса, приблудной коровы и пушистых котят, таких неуместных на лоне дикой природы. Она осознала, что недостаточно юна и безрассудна для самоубийства, значит, придётся выживать, чего бы это ни стоило…



Название: Стена
Оригинальное название: Die Wand / The Wall
Год выхода: 2012
Жанр: фэнтези, драма
Режиссер: Юлиан Пельслер

В ролях: Мартина Гедек, Вольфганг М. Бауэр, Ульрике Баймпольд, Карлхайнц Хакль, Ганс-Михаэль Реберг




Выпущено: Германия, Австрия
Продолжительность: 01:47:55
Озвучивание:
Авторское (одноголосое) [А.Дольский]
Любительское (одноголосое) [ХиХиДок]


Формат: MKV
Качество: BDRip 1080p [HDS]
Видео: 10811 kb/s, 1920x816
Аудио:
Russian: [А.Дольский]: AC3, 448 kb/s (6 ch) / [ХиХиДок]: AC3, 640 kb/s (6 ch)
German: DTS, 1510 kb/s (6 ch)
Субтитры: Russian [zukaten], English
Дополнительно: Сохранены оригинальные чаптеры как на Blu-Ray

Скачать: Сэмпл

Релиз группы:




Общее
CINEMANIAThe.Wall.2012.Blu.Ray.1080p.CINEMANIA.mkv
Формат : Matroska
Версия формата : Version 4 / Version 2
Размер файла : 10,1 Гбайт
Продолжительность : 1 ч. 47 м.
Общий поток : 13,3 Мбит/сек
Название фильма : Release Group CINEMANIA
Дата кодирования : UTC 2014-03-04 11:45:03
Программа кодирования : mkvmerge v6.7.0 ('Back to the Ground') 64bit built on Jan 8 2014 15:10:52
Библиотека кодирования : libebml v1.3.0 + libmatroska v1.4.1

Видео
Идентификатор : 1
Формат : AVC
Формат/Информация : Advanced Video Codec
Профиль формата : High@L4.1
Параметр CABAC формата : Да
Параметр ReFrames формата : 5 кадров
Идентификатор кодека : V_MPEG4/ISO/AVC
Продолжительность : 1 ч. 47 м.
Битрейт : 10,8 Мбит/сек
Ширина : 1920 пикселей
Высота : 816 пикселей
Соотношение сторон : 2,35:1
Режим частоты кадров : Постоянный
Частота кадров : 23,976 кадра/сек
Цветовое пространство : YUV
Субдискретизация насыщенности : 4:2:0
Битовая глубина : 8 бит
Тип развёртки : Прогрессивная
Бит/(Пиксели*Кадры) : 0.286
Размер потока : 7,90 Гбайт (79%)
Заголовок : Release Group CINEMANIA
Библиотека кодирования : x264 core 130 r2273 b3065e6
Настройки программы : cabac=1 / ref=5 / deblock=1:-3:-3 / analyse=0x3:0x113 / me=umh / subme=10 / psy=1 / psy_rd=1.20:0.00 / mixed_ref=1 / me_range=32 / chroma_me=1 / trellis=2 / 8x8dct=1 / cqm=0 / deadzone=21,11 / fast_pskip=0 / chroma_qp_offset=-2 / threads=12 / lookahead_threads=1 / sliced_threads=0 / nr=0 / decimate=1 / interlaced=0 / bluray_compat=0 / constrained_intra=0 / bframes=9 / b_pyramid=2 / b_adapt=2 / b_bias=0 / direct=3 / weightb=1 / open_gop=0 / weightp=2 / keyint=250 / keyint_min=23 / scenecut=40 / intra_refresh=0 / rc=2pass / mbtree=0 / bitrate=10750 / ratetol=1.0 / qcomp=0.60 / qpmin=0 / qpmax=69 / qpstep=4 / cplxblur=20.0 / qblur=0.5 / ip_ratio=1.40 / pb_ratio=1.30 / aq=1:1.10
Язык : English
Default : Да
Forced : Нет

Аудио #1
Идентификатор : 2
Формат : AC-3
Формат/Информация : Audio Coding 3
Расширение режима : CM (complete main)
Параметр Endianness формата : Big
Идентификатор кодека : A_AC3
Продолжительность : 1 ч. 47 м.
Вид битрейта : Постоянный
Битрейт : 448 Кбит/сек
Каналы : 6 каналов
Расположение каналов : Front: L C R, Side: L R, LFE
Частота : 48,0 КГц
Битовая глубина : 16 бит
Метод сжатия : С потерями
Размер потока : 346 Мбайт (3%)
Заголовок : А.Дольский
Язык : Russian
Default : Да
Forced : Да

Аудио #2
Идентификатор : 3
Формат : AC-3
Формат/Информация : Audio Coding 3
Расширение режима : CM (complete main)
Параметр Endianness формата : Big
Идентификатор кодека : A_AC3
Продолжительность : 1 ч. 47 м.
Вид битрейта : Постоянный
Битрейт : 640 Кбит/сек
Каналы : 6 каналов
Расположение каналов : Front: L C R, Side: L R, LFE
Частота : 48,0 КГц
Битовая глубина : 16 бит
Метод сжатия : С потерями
Размер потока : 494 Мбайт (5%)
Заголовок : ХиХиДок
Язык : Russian
Default : Нет
Forced : Нет

Аудио #3
Идентификатор : 4
Формат : DTS
Формат/Информация : Digital Theater Systems
Режим : 16
Параметр Endianness формата : Big
Идентификатор кодека : A_DTS
Продолжительность : 1 ч. 47 м.
Вид битрейта : Постоянный
Битрейт : 1509 Кбит/сек
Каналы : 6 каналов
Расположение каналов : Front: L C R, Side: L R, LFE
Частота : 48,0 КГц
Битовая глубина : 24 бит
Метод сжатия : С потерями
Размер потока : 1,14 Гбайт (11%)
Язык : German
Default : Нет
Forced : Нет

Текст #1
Идентификатор : 5
Формат : UTF-8
Идентификатор кодека : S_TEXT/UTF8
Идентификатор кодека/Информация : UTF-8 Plain Text
Заголовок : zukaten
Язык : Russian
Default : Нет
Forced : Нет

Текст #2
Идентификатор : 6
Формат : UTF-8
Идентификатор кодека : S_TEXT/UTF8
Идентификатор кодека/Информация : UTF-8 Plain Text
Язык : English
Default : Нет
Forced : Нет

Меню
00:00:00.000 : de:00:00:00.000
00:04:16.214 : de:00:04:16.214
00:15:05.404 : de:00:15:05.404
00:25:25.315 : de:00:25:25.315
00:34:56.428 : de:00:34:56.428
00:43:05.208 : de:00:43:05.208
00:51:58.615 : de:00:51:58.615
01:01:03.827 : de:01:01:03.827
01:10:28.391 : de:01:10:28.391
01:18:20.571 : de:01:18:20.571
01:27:32.247 : de:01:27:32.247
01:36:38.418 : de:01:36:38.418
загрузка...
Правила, инструкции, FAQ!!!
Торрент  Добавлен [04 мар 2014, 17:59] Скачать торрент
Скачать торрент
[ Размер 50.87 КБ / Просмотров 10 ]

Статус  
 
Размер  10.06 ГБ
Приватный: Нет (DHT включён)
.torrent скачан  0
Как залить торрент? | Как скачать Torrent? | Как смотреть и слушать онлайн?  


     Отправить личное сообщение
   
Страница 1 из 1
Показать сообщения за:  Поле сортировки  
Начать новую тему Ответить на тему

   Похожие торренты   Автор   Ответы   Просмотры   Последнее сообщение 
В этой теме нет новых непрочитанных сообщений. Скачать торрент Стена / Die Wand / The Wall (2012) BDRip 720p | A, L1

в форуме 720p | 1080p, Размер: 5.84 ГБ, Здоровье: 0%

Anonymous

0
0|0

31
0

04 мар 2014, 17:54

Anonymous Перейти к последнему сообщению

В этой теме нет новых непрочитанных сообщений. Скачать торрент Проверен Роджер Уотерс: Стена / Roger Waters the Wall (2015) BDRip 1080p от HDLine

в форуме Концерты (HD-Video), Размер: 10.09 ГБ, Здоровье: 100%

Гость

0
652|16

435
62

18 ноя 2015, 20:22

Гость Перейти к последнему сообщению

В этой теме нет новых непрочитанных сообщений. Скачать торрент Проверен Роджер Уотерс: Стена / Roger Waters the Wall (2015) Blu-Ray Remux 1080p от HDLine

в форуме Концерты (HD-Video), Размер: 32.92 ГБ, Здоровье: 100%

Гость

0
26|13

216
9

18 ноя 2015, 20:21

Гость Перейти к последнему сообщению

В этой теме нет новых непрочитанных сообщений. Скачать торрент Проверен Роджер Уотерс: Стена / Roger Waters the Wall (2015) BDRip-AVC

в форуме Концерты, Размер: 1.87 ГБ, Здоровье: 100%

Гость

0
94|3

479
38

18 ноя 2015, 20:22

Гость Перейти к последнему сообщению

В этой теме нет новых непрочитанных сообщений. Скачать торрент Северная стена / The North Face / Nordwand (2008) BDRip 1080p | SaTI

в форуме 720p | 1080p, Размер: 13.63 ГБ, Здоровье: 100%

Anonymous

0
1|0

16
2

30 дек 2013, 21:31

Anonymous Перейти к последнему сообщению



Сейчас этот форум просматривают: нет зарегистрированных пользователей и гости: 1


Вы не можете начинать темы
Вы не можете отвечать на сообщения
Вы не можете редактировать свои сообщения
Вы не можете удалять свои сообщения
Вы не можете добавлять вложения

Перейти:  

!ВНИМАНИЕ!
 Ресурс не предоставляет электронные версии произведений, а занимается лишь коллекционированием и каталогизацией ссылок, присылаемых и публикуемых на форуме нашими читателями. Если вы являетесь правообладателем какого-либо представленного материала и не желаете чтобы ссылка на него находилась в нашем каталоге, свяжитесь с нами и мы незамедлительно удалим её. Файлы для обмена на трекере предоставлены пользователями сайта, и администрация не несёт ответственности за их содержание. Просьба не заливать файлы, защищенные авторскими правами, а также файлы нелегального содержания!