На всех торрентах на трекере установлена скидка на скачивание в размере 100 процентов(а).
 Возможность скачивания торрента НЕ зависит от ограничений при низком ратио, низком аплоаде, требуемом ратио или требуемом аплоаде.


Начать новую тему Ответить на тему
Статистика раздачи
Размер: 7.76 ГБ | Добавлен: 03 мар 2014, 17:52 | Скачали: 0
Сидеров: 0  [0 байт/сек]    Личеров: 0  [0 байт/сек]
Пред. тема | След. тема 

Автор
Сообщение

СообщениеДобавлено: 03 мар 2014, 17:52 

Название: Прекрасные создания
Оригинальное название: Beautiful Creatures
Год выхода: 2013
Жанр: фэнтези, драма, мелодрама
Режиссер: Ричард ЛаГравенес

В ролях: Олден Эйренрайк, Элис Энглерт, Джереми Айронс, Виола Дэвис, Эмми Россам, Томас Манн, Эмма Томпсон, Айлин Эткинс, Марго Мартиндейл, Зои Дойч

О фильме: В Гэтлине не бывает сюрпризов. Лена Дюкейн отличается от всех, кого когда-либо видел этот маленький южный город. Она борется с собой, пытаясь усмирить свою силу и проклятие, веками преследовавшее её семью. Но даже в разросшихся садах, в мрачных болотах и на разрушенных могильниках позабытого Юга секрет не будет жить вечно.
Итана Уэйта, считающего дни до своего бегства из Гэтлина, преследуют сны о прекрасной девушке, которую он никогда не встречал. Когда Лена приезжает жить в дом на самой старой и самой жуткой из всех плантаций города, Итан безответно влюбляется в неё и целенаправленно старается раскрыть секрет их удивительной связи. В городе без сюрпризов, один секрет может изменить всё.



Выпущено: Alcon Entertainment
Продолжительность: 02:03:45
Перевод: Дублированный (лицензия)


Кодек: x264
Качество: BDRip (источник: Blu-ray Disc)
Видео: 1920x800 (2,40:1), 23.976 fps, 8080 kbps
Аудио #1: AC-3, 6 ch, 448 kbps (Rus)
Аудио #2: AC-3, 6 ch, 448 kbps (Eng)
Субтитры: Русские, Английские
Скачать: сэмпл

Скриншоты

Общее
Уникальный идентификатор : 184278794337590448867685962319717648482 (0x8AA2CE083A1D79AAA992188AE1BEC862)
Полное имя : Beautiful.Creatures.2013.BDRip.1080p.Rus.Eng.mkv
Формат : Matroska
Версия формата : Version 2
Размер файла : 7,76 Гбайт
Продолжительность : 2 ч. 3 м.
Общий поток : 8976 Кбит/сек
Название фильма : Прекрасные создания / Beautiful Creatures (2013)
Дата кодирования : UTC 2014-03-02 16:03:15
Программа кодирования : mkvmerge v5.8.0 ('No Sleep / Pillow') built on Sep 2 2012 15:37:04
Библиотека кодирования : libebml v1.2.3 + libmatroska v1.3.0

Видео
Идентификатор : 1
Формат : AVC
Формат/Информация : Advanced Video Codec
Профиль формата : High@L4.1
Параметр CABAC формата : Да
Параметр ReFrames формата : 5 кадров
Идентификатор кодека : V_MPEG4/ISO/AVC
Продолжительность : 2 ч. 3 м.
Битрейт : 8080 Кбит/сек
Ширина : 1920 пикселей
Высота : 800 пикселей
Соотношение сторон : 2,40:1
Режим частоты кадров : Постоянный
Частота кадров : 23,976 кадра/сек
Цветовое пространство : YUV
Субдискретизация насыщенности : 4:2:0
Битовая глубина : 8 бит
Тип развёртки : Прогрессивная
Бит/(Пиксели*Кадры) : 0.219
Размер потока : 6,83 Гбайт (88%)
Заголовок : Release by AlexKa
Библиотека кодирования : x264 core 142 r2389 956c8d8
Настройки программы : cabac=1 / ref=5 / deblock=1:-3:-3 / analyse=0x3:0x133 / me=umh / subme=11 / psy=1 / psy_rd=1.00:0.00 / mixed_ref=1 / me_range=32 / chroma_me=1 / trellis=2 / 8x8dct=1 / cqm=0 / deadzone=21,11 / fast_pskip=0 / chroma_qp_offset=-2 / threads=12 / lookahead_threads=1 / sliced_threads=0 / nr=0 / decimate=0 / interlaced=0 / bluray_compat=0 / constrained_intra=0 / bframes=6 / b_pyramid=2 / b_adapt=2 / b_bias=0 / direct=3 / weightb=1 / open_gop=0 / weightp=2 / keyint=240 / keyint_min=23 / scenecut=40 / intra_refresh=0 / rc=2pass / mbtree=0 / bitrate=8080 / ratetol=1.0 / qcomp=0.60 / qpmin=0 / qpmax=69 / qpstep=4 / cplxblur=20.0 / qblur=0.5 / ip_ratio=1.40 / pb_ratio=1.30 / aq=1:0.80
Язык : English

Аудио #1
Идентификатор : 2
Формат : AC-3
Формат/Информация : Audio Coding 3
Расширение режима : CM (complete main)
Параметр Endianness формата : Big
Идентификатор кодека : A_AC3
Продолжительность : 2 ч. 3 м.
Вид битрейта : Постоянный
Битрейт : 448 Кбит/сек
Каналы : 6 каналов
Расположение каналов : Front: L C R, Side: L R, LFE
Частота : 48,0 КГц
Битовая глубина : 16 бит
Метод сжатия : С потерями
Размер потока : 397 Мбайт (5%)
Заголовок : Rus
Язык : Russian

Аудио #2
Идентификатор : 3
Формат : AC-3
Формат/Информация : Audio Coding 3
Расширение режима : CM (complete main)
Параметр Endianness формата : Big
Идентификатор кодека : A_AC3
Продолжительность : 2 ч. 3 м.
Вид битрейта : Постоянный
Битрейт : 448 Кбит/сек
Каналы : 6 каналов
Расположение каналов : Front: L C R, Side: L R, LFE
Частота : 48,0 КГц
Битовая глубина : 16 бит
Метод сжатия : С потерями
Размер потока : 397 Мбайт (5%)
Заголовок : Eng
Язык : English

Текст #1
Идентификатор : 4
Формат : UTF-8
Идентификатор кодека : S_TEXT/UTF8
Идентификатор кодека/Информация : UTF-8 Plain Text
Заголовок : Rus
Язык : Russian

Текст #2
Идентификатор : 5
Формат : UTF-8
Идентификатор кодека : S_TEXT/UTF8
Идентификатор кодека/Информация : UTF-8 Plain Text
Заголовок : Eng
Язык : English

Меню
00:00:00.000 : :Chapter 01
00:09:38.036 : :Chapter 02
00:18:05.543 : :Chapter 03
00:28:05.058 : :Chapter 04
00:38:47.158 : :Chapter 05
00:49:34.054 : :Chapter 06
01:02:48.640 : :Chapter 07
01:11:04.510 : :Chapter 08
01:19:58.252 : :Chapter 09
01:28:35.393 : :Chapter 10
01:37:40.104 : :Chapter 11
01:52:17.564 : :Chapter 12
01:57:26.039 : :Chapter 13
x264 [info]: frame I:1367 Avg QP:15.22 size:218855
x264 [info]: frame P:35475 Avg QP:17.98 size: 83882
x264 [info]: frame B:141171 Avg QP:20.05 size: 29912
загрузка...
Правила, инструкции, FAQ!!!
Торрент  Добавлен [03 мар 2014, 17:52] Скачать торрент
Скачать торрент
[ Размер 20.08 КБ / Просмотров 11 ]

Статус  
 
Размер  7.76 ГБ
Приватный: Нет (DHT включён)
.torrent скачан  0
Как залить торрент? | Как скачать Torrent? | Как смотреть и слушать онлайн?  


     Отправить личное сообщение
   
Страница 1 из 1
Показать сообщения за:  Поле сортировки  
Начать новую тему Ответить на тему

   Похожие торренты   Автор   Ответы   Просмотры   Последнее сообщение 
В этой теме нет новых непрочитанных сообщений. Скачать торрент Прекрасные создания / Beautiful Creatures (2013) HDRip | D | Лицензия

в форуме Фантастика, Фэнтези, Размер: 1.45 ГБ, Здоровье: 100%

Anonymous

0
37|1

45
2247

03 мар 2014, 17:46

Anonymous Перейти к последнему сообщению

В этой теме нет новых непрочитанных сообщений. Скачать торрент Проверен [iPad] Прекрасные создания / Beautiful Creatures (Ричард ЛаГравенес / Richard LaGravenese ) [2013, США, Фэнтези, драма, мелодрама, BDRip, SD (576p)] DUB + Original + sub (rus, eng)

в форуме Фильмы для iPod, iPhone, iPad, Размер: 2.18 ГБ, Здоровье: 100%

Гость

0
9|3

30
0

12 май 2015, 00:12

Гость Перейти к последнему сообщению

В этой теме нет новых непрочитанных сообщений. Скачать торрент Проверен (Hard Rock) Beautiful Creatures - Beautiful Creatures - 2001, FLAC (tracks+.cue), lossless

в форуме Classic Rock & Hard Rock, Размер: 329.82 МБ, Здоровье: 0%

Anonymous

0
0|0

0
0

03 сен 2016, 14:10

Anonymous Перейти к последнему сообщению

В этой теме нет новых непрочитанных сообщений. Скачать торрент Проверен Свирепые создания / Fierce Creatures (1997) BDRip 720p | P, P2, A

в форуме 720p | 1080p, Размер: 3.99 ГБ, Здоровье: 100%

Гость

0
61|40

40
52

08 май 2015, 20:33

Гость Перейти к последнему сообщению

В этой теме нет новых непрочитанных сообщений. Скачать торрент Проверен (Hard Rock) Beautiful Creatures Discography, MP3 (tracks), 320 kbps

в форуме Classic Rock & Hard Rock, Размер: 196.94 МБ, Здоровье: 0%

Anonymous

0
0|0

0
0

14 ноя 2016, 20:44

Anonymous Перейти к последнему сообщению



Сейчас этот форум просматривают: нет зарегистрированных пользователей и гости: 2


Вы не можете начинать темы
Вы не можете отвечать на сообщения
Вы не можете редактировать свои сообщения
Вы не можете удалять свои сообщения
Вы не можете добавлять вложения

Перейти:  

!ВНИМАНИЕ!
 Ресурс не предоставляет электронные версии произведений, а занимается лишь коллекционированием и каталогизацией ссылок, присылаемых и публикуемых на форуме нашими читателями. Если вы являетесь правообладателем какого-либо представленного материала и не желаете чтобы ссылка на него находилась в нашем каталоге, свяжитесь с нами и мы незамедлительно удалим её. Файлы для обмена на трекере предоставлены пользователями сайта, и администрация не несёт ответственности за их содержание. Просьба не заливать файлы, защищенные авторскими правами, а также файлы нелегального содержания!