На всех торрентах на трекере установлена скидка на скачивание в размере 100 процентов(а).
 Возможность скачивания торрента НЕ зависит от ограничений при низком ратио, низком аплоаде, требуемом ратио или требуемом аплоаде.


Начать новую тему Ответить на тему
Статистика раздачи
Размер: 21.04 ГБ | Добавлен: 24 дек 2012, 22:58 | Скачали: 0
Сидеров: 0  [0 байт/сек]    Личеров: 0  [0 байт/сек]
Пред. тема | След. тема 

Автор
Сообщение

СообщениеДобавлено: 24 дек 2012, 22:58 

Информация о фильме
Название: Облачный атлас
Оригинальное название: Cloud Atlas
Год выхода: 2012
Жанр: Фантастика, драма, детектив
Режиссер: Лана Вачовски, Том Тыквер, Энди Вачовски
В ролях: Том Хэнкс, Холли Берри, Джим Броудбент, Хьюго Уивинг, Джим Стёрджесс, Пэ Дуна, Бен Уишоу, Джеймс Д’Арси, Жу Жу, Кит Дэвид

О фильме:
Шесть историй — пять реинкарнаций, происходящих в разное время, тесно переплетаются между собой…



Страна: Германия, США, Гонконг, Сингапур
Продолжительность: 02:52:07
Перевод: Дублированный [Лицензия]

Файл
Формат: mkv
Кодек: AVC
Качество: BDRip 1080p
Видео: 1920x816, 23.976 fps, 16 Mbps
Звук: DTS, 48 kHz, 6 ch, 1510 Kbps
Дополнительно: Сохранены оригинальные чаптеры как на Blu-ray.

General
Unique ID : 240934026737336801210111137216523505149 (0xB54234A6E391CD9696CF04B442DD8DFD)
Complete name : E:Cloud.Atlas.2012.1080p.mkv
Format : Matroska
Format version : Version 2
File size : 21.0 GiB
Duration : 2h 52mn
Overall bit rate : 17.5 Mbps
Movie name : HDCLUB present "Cloud Atlas (2012)"
Encoded date : UTC 2012-12-17 16:07:25
Writing application : mkvmerge v5.6.0 ('Kenya Kane') built on May 27 2012 16:44:04
Writing library : libebml v1.2.3 + libmatroska v1.3.0

Video
ID : 1
Format : AVC
Format/Info : Advanced Video Codec
Format profile : High@L4.1
Format settings, CABAC : Yes
Format settings, ReFrames : 5 frames
Codec ID : V_MPEG4/ISO/AVC
Duration : 2h 52mn
Bit rate : 16.0 Mbps
Width : 1 920 pixels
Height : 816 pixels
Display aspect ratio : 2.35:1
Frame rate : 23.976 fps
Color space : YUV
Chroma subsampling : 4:2:0
Bit depth : 8 bits
Scan type : Progressive
Bits/(Pixel*Frame) : 0.426
Stream size : 18.8 GiB (89%)
Title : Cloud.Atlas.2012.1080p.Bluray.Rus.HDCLUB
Writing library : x264 core 129 r2230 1cffe9f
Encoding settings : cabac=1 / ref=5 / deblock=1:-3:-3 / analyse=0x3:0x133 / me=umh / subme=11 / psy=1 / psy_rd=1.10:0.00 / mixed_ref=1 / me_range=48 / chroma_me=1 / trellis=2 / 8x8dct=1 / cqm=0 / deadzone=21,11 / fast_pskip=0 / chroma_qp_offset=-2 / threads=12 / lookahead_threads=2 / sliced_threads=0 / nr=0 / decimate=1 / interlaced=0 / bluray_compat=0 / constrained_intra=0 / bframes=8 / b_pyramid=2 / b_adapt=2 / b_bias=0 / direct=3 / weightb=1 / open_gop=0 / weightp=2 / keyint=250 / keyint_min=23 / scenecut=40 / intra_refresh=0 / rc_lookahead=60 / rc=2pass / mbtree=0 / bitrate=16000 / ratetol=1.0 / qcomp=0.60 / qpmin=0 / qpmax=69 / qpstep=4 / cplxblur=20.0 / qblur=0.5 / vbv_maxrate=50000 / vbv_bufsize=62500 / nal_hrd=none / ip_ratio=1.40 / pb_ratio=1.30 / aq=1:0.80
Language : English
Default : Yes
Forced : Yes

Audio
ID : 2
Format : DTS
Format/Info : Digital Theater Systems
Codec ID : A_DTS
Duration : 2h 52mn
Bit rate mode : Constant
Bit rate : 1 510 Kbps
Channel(s) : 6 channels
Channel positions : Front: L C R, Side: L R, LFE
Sampling rate : 48.0 KHz
Bit depth : 16 bits
Compression mode : Lossy
Stream size : 1.82 GiB (9%)
Title : DTS 5.1 @ 1509 kbps - Dubbing [Blu-ray RUS]
Language : Russian
Default : Yes
Forced : Yes

Menu
00:00:00.000 : en:1
00:05:23.698 : en:2
00:14:48.554 : en:3
00:24:37.559 : en:4
00:31:45.361 : en:5
00:38:48.284 : en:6
00:46:39.087 : en:7
00:54:30.684 : en:8
00:59:25.937 : en:9
01:06:08.381 : en:10
01:12:34.266 : en:11
01:20:25.153 : en:12
01:26:51.456 : en:13
01:33:15.006 : en:14
01:39:44.645 : en:15
01:45:39.374 : en:16
01:53:32.388 : en:17
02:00:03.070 : en:18
02:09:22.921 : en:19
02:16:09.870 : en:20
02:22:03.431 : en:21
02:29:16.656 : en:22
02:37:02.246 : en:23
02:42:50.218 : en:24



Релиз от:
загрузка...
Правила, инструкции, FAQ!!!
Торрент  Добавлен [24 дек 2012, 22:58] Скачать торрент
Скачать торрент
[ Размер 53.13 КБ / Просмотров 19 ]

Статус
Проверен 
 
Размер  21.04 ГБ
Приватный: Нет (DHT включён)
.torrent скачан  0
Как залить торрент? | Как скачать Torrent? | Как смотреть и слушать онлайн?  


     Отправить личное сообщение
   
Страница 1 из 1
Показать сообщения за:  Поле сортировки  
Начать новую тему Ответить на тему

   Похожие торренты   Автор   Ответы   Просмотры   Последнее сообщение 
В этой теме нет новых непрочитанных сообщений. Скачать торрент Проверен Интеллектуальный бестселлер - David Mitchell/Дэвид Митчелл - Cloud Atlas / Облачный атлас [2004, TXT, RUS]

в форуме Зарубежная литература (XX и XXI век), Размер: 1.15 МБ, Здоровье: 100%

Anonymous

0
34|11

0
0

08 сен 2016, 20:22

Anonymous Перейти к последнему сообщению

В этой теме нет новых непрочитанных сообщений. Скачать торрент Проверен Митчелл Дэвид - Облачный атлас [Ерисанова Ирина, 2013, 96 kbps, MP3]

в форуме Зарубежная фантастика, фэнтези, мистика, ужасы, Размер: 1.01 ГБ, Здоровье: 100%

Anonymous

0
34|11

1
0

11 сен 2016, 13:12

Anonymous Перейти к последнему сообщению

В этой теме нет новых непрочитанных сообщений. Скачать торрент Проверен Дэвид Митчелл - Облачный атлас [Ирина Ерисанова, 2009, Фантастика, 64 kbps]

в форуме Аудиокниги (AAC, ALAC), Размер: 626.44 МБ, Здоровье: 100%

Anonymous

0
16|5

1
0

28 авг 2016, 20:09

Anonymous Перейти к последнему сообщению

В этой теме нет новых непрочитанных сообщений. Скачать торрент Проверен Atlas of Creation. Harun Yahya / Атлас происхождения жизни. Харун Яхъя [2006-2009; PDF, ENG/RUS]

в форуме Эзотерика, гадания, магия, фен-шуй, Размер: 164.42 МБ, Здоровье: 100%

Anonymous

0
3|1

0
0

28 авг 2016, 22:30

Anonymous Перейти к последнему сообщению

В этой теме нет новых непрочитанных сообщений. Скачать торрент Проверен Johnson H., Robinson J. / Джонсон Х., Робинсон Дж. - The World Atlas of Wine, 7th Ed. / Винный атлас мира, 7-е изд. [2013, PDF, ENG]

в форуме Кулинария, Размер: 138.81 МБ, Здоровье: 100%

Anonymous

0
9|2

10
1

19 окт 2016, 22:47

Anonymous Перейти к последнему сообщению



Сейчас этот форум просматривают: нет зарегистрированных пользователей и гости: 4


Вы не можете начинать темы
Вы не можете отвечать на сообщения
Вы не можете редактировать свои сообщения
Вы не можете удалять свои сообщения
Вы не можете добавлять вложения

Перейти:  

!ВНИМАНИЕ!
 Ресурс не предоставляет электронные версии произведений, а занимается лишь коллекционированием и каталогизацией ссылок, присылаемых и публикуемых на форуме нашими читателями. Если вы являетесь правообладателем какого-либо представленного материала и не желаете чтобы ссылка на него находилась в нашем каталоге, свяжитесь с нами и мы незамедлительно удалим её. Файлы для обмена на трекере предоставлены пользователями сайта, и администрация не несёт ответственности за их содержание. Просьба не заливать файлы, защищенные авторскими правами, а также файлы нелегального содержания!