На всех торрентах на трекере установлена скидка на скачивание в размере 100 процентов(а).
 Возможность скачивания торрента НЕ зависит от ограничений при низком ратио, низком аплоаде, требуемом ратио или требуемом аплоаде.


Начать новую тему Ответить на тему
Статистика раздачи
Размер: 5.81 ГБ | Добавлен: 01 мар 2014, 23:29 | Скачали: 0
Сидеров: 0  [0 байт/сек]    Личеров: 0  [0 байт/сек]
Пред. тема | След. тема 

Автор
Сообщение

СообщениеДобавлено: 01 мар 2014, 23:29 

Название: Идеальный незнакомец
Оригинальное название: Perfect Stranger
Год выхода: 2007
Жанр: Триллер, детектив
Режиссер: Джеймс Фоули

В ролях: Холли Берри, Брюс Уиллис, Rob Alicea, Джейсон Антун, Anya Avaeva, Ники Линн Ококс, Кэролин Баррет, Ilana Becker, Джейн Брэдбери, Джаред Бурк, Karl Bury, Лиа Каприс, Майкл Каррара, Kathleen Chalfant, Маркус Коллинз, Патти Д`Арбанвилль, Гари Дурдан, Стивен Дж. Идс, МакКензи Фэллон, Тамара Фельдман, Джон Хейнлейн

О фильме:
Когда журналистка Ровена Прайс, занимающаяся расследованием убийства своей подруги, узнает, что к нему может быть причастен влиятельный глава рекламного агентства Харрисон Хилл, она затевает опасную игру вместе со своим помощником Майлзом Хэйли.
Принимая образы Катарины, машинистки в агентстве Хилла, и Вероники, девушки, с которой Хилл флиртует в Интернете, она плетет хитроумную паутину вокруг своей жертвы, чтобы, в конечном счете, выяснить, что она не единственная, кто меняет свои личины. Чем ближе мы приближаемся к разгадке тайны, тем очевиднее ответ на вопрос, как далеко люди готовы идти, чтобы защитить ее: сокровенную тайну.



Страна: США
Продолжительность: 01:48:58
Перевод: Профессиональный (полное дублирование)

Файл
Кодек: x264
Качество: BDRip (источник: BDRemux)
Видео: 1920x800 (2,40:1), 23.976 fps, 6560 kbps
Аудио #1: AC-3, 6 ch, 448 kbps (Rus)
Аудио #2: AC-3, 6 ch, 640 kbps (Eng)
Субтитры: Русские

Скриншоты

Общее
Уникальный идентификатор : 211794259381044394978874764021244124043 (0x9F561732D0AB2172913274CBEED45B8B)
Полное имя : E:Perfect Stranger.2007.BDRip.1080p.Rus.Eng.mkv
Формат : Matroska
Версия формата : Version 2
Размер файла : 5,81 Гбайт
Продолжительность : 1 ч. 48 м.
Общий поток : 7635 Кбит/сек
Название фильма : Идеальный незнакомец (Perfect Stranger) 2007
Дата кодирования : UTC 2013-01-08 07:20:13
Программа кодирования : mkvmerge v5.8.0 ('No Sleep / Pillow') built on Sep 2 2012 15:37:04
Библиотека кодирования : libebml v1.2.3 + libmatroska v1.3.0

Видео
Идентификатор : 1
Формат : AVC
Формат/Информация : Advanced Video Codec
Профиль формата : High@L4.1
Параметр CABAC формата : Да
Параметр ReFrames формата : 5 кадров
Идентификатор кодека : V_MPEG4/ISO/AVC
Продолжительность : 1 ч. 48 м.
Битрейт : 6560 Кбит/сек
Ширина : 1920 пикселей
Высота : 800 пикселей
Соотношение сторон : 2,40:1
Режим частоты кадров : Постоянный
Частота кадров : 23,976 кадра/сек
Цветовое пространство : YUV
Субдискретизация насыщенности : 4:2:0
Битовая глубина : 8 бит
Тип развёртки : Прогрессивная
Бит/(Пиксели*Кадры) : 0.178
Размер потока : 4,87 Гбайт (84%)
Библиотека кодирования : x264 core 128 r2216M 198a7ea
Настройки программы : cabac=1 / ref=5 / deblock=1:0:0 / analyse=0x3:0x133 / me=umh / subme=10 / psy=1 / psy_rd=1.00:0.00 / mixed_ref=1 / me_range=32 / chroma_me=1 / trellis=2 / 8x8dct=1 / cqm=0 / deadzone=21,11 / fast_pskip=0 / chroma_qp_offset=-2 / threads=4 / lookahead_threads=1 / sliced_threads=0 / nr=0 / decimate=0 / interlaced=0 / bluray_compat=0 / constrained_intra=0 / bframes=12 / b_pyramid=2 / b_adapt=2 / b_bias=0 / direct=3 / weightb=1 / open_gop=0 / weightp=2 / keyint=240 / keyint_min=23 / scenecut=40 / intra_refresh=0 / rc=2pass / mbtree=0 / bitrate=6560 / ratetol=1.0 / qcomp=0.60 / qpmin=10 / qpmax=69 / qpstep=4 / cplxblur=20.0 / qblur=0.5 / ip_ratio=1.40 / pb_ratio=1.30 / aq=1:1.00
Язык : English
Default : Да
Forced : Нет

Аудио #1
Идентификатор : 2
Формат : AC-3
Формат/Информация : Audio Coding 3
Расширение режима : CM (complete main)
Параметр Endianness формата : Big
Идентификатор кодека : A_AC3
Продолжительность : 1 ч. 48 м.
Вид битрейта : Постоянный
Битрейт : 448 Кбит/сек
Каналы : 6 каналов
Расположение каналов : Front: L C R, Side: L R, LFE
Частота : 48,0 КГц
Битовая глубина : 16 бит
Метод сжатия : С потерями
Размер потока : 349 Мбайт (6%)
Заголовок : Dub, AC3 5.1, 448 kbps
Язык : Russian
Default : Да
Forced : Нет

Аудио #2
Идентификатор : 3
Формат : AC-3
Формат/Информация : Audio Coding 3
Расширение режима : CM (complete main)
Параметр Endianness формата : Big
Идентификатор кодека : A_AC3
Продолжительность : 1 ч. 48 м.
Вид битрейта : Постоянный
Битрейт : 640 Кбит/сек
Каналы : 6 каналов
Расположение каналов : Front: L C R, Side: L R, LFE
Частота : 48,0 КГц
Битовая глубина : 16 бит
Метод сжатия : С потерями
Размер потока : 499 Мбайт (8%)
Заголовок : AC3 5.1, 640 kbps
Язык : English
Default : Нет
Forced : Нет

Текст
Идентификатор : 4
Формат : UTF-8
Идентификатор кодека : S_TEXT/UTF8
Идентификатор кодека/Информация : UTF-8 Plain Text
Язык : Russian
Default : Нет
Forced : Нет

Меню
00:00:00.000 : en:Getting Everything
00:05:21.112 : en:Hot Headline
00:08:08.070 : en:Cut Cold
00:12:18.362 : en:Body ID
00:16:44.169 : en:Story Lead
00:20:43.992 : en:Evening Date
00:24:54.826 : en:Undercover Issue
00:27:22.349 : en:Inside Leak
00:31:30.722 : en:Sharing Secrets
00:34:57.595 : en:Victoria's Party
00:38:17.086 : en:Making Offers
00:41:59.099 : en:Late Night Chat
00:45:09.665 : en:Working Late
00:51:49.606 : en:Toxic Information
00:53:36.963 : en:Dinner Party
00:57:37.078 : en:H2A Mischief
01:01:36.401 : en:Taking Responsibility
01:04:37.582 : en:Surprise Meeting
01:07:27.043 : en:Dropping Notes
01:11:09.181 : en:Getting Heated
01:17:22.471 : en:Repairing Damage
01:21:26.756 : en:Personal Matters
01:24:55.048 : en:True Blue
01:29:50.134 : en:Spectacular View
01:31:48.544 : en:Placing Blame
01:35:17.128 : en:Burying the Past
01:40:34.319 : en:Causing a Scene
01:41:37.508 : en:Never Existed
x264 [info]: frame I:1095 Avg QP:18.47 size:152754
x264 [info]: frame P:30828 Avg QP:19.76 size: 67009
x264 [info]: frame B:124844 Avg QP:21.31 size: 24959
загрузка...
Правила, инструкции, FAQ!!!
Торрент  Добавлен [01 мар 2014, 23:29] Скачать торрент
Скачать торрент
[ Размер 15.14 КБ / Просмотров 2 ]

Статус  
 
Размер  5.81 ГБ
Приватный: Нет (DHT включён)
.torrent скачан  0
Как залить торрент? | Как скачать Torrent? | Как смотреть и слушать онлайн?  


     Отправить личное сообщение
   
Страница 1 из 1
Показать сообщения за:  Поле сортировки  
Начать новую тему Ответить на тему

   Похожие торренты   Автор   Ответы   Просмотры   Последнее сообщение 
В этой теме нет новых непрочитанных сообщений. Скачать торрент Проверен Идеальный шторм / The Perfect Storm (2000) BDRip 1080p | D, A

в форуме 720p | 1080p, Размер: 7.75 ГБ, Здоровье: 100%

Anonymous

0
38|34

30
23

25 апр 2015, 18:36

Anonymous Перейти к последнему сообщению

В этой теме нет новых непрочитанных сообщений. Скачать торрент Проверен Идеальный день / A Perfect Day (2015) BDRip | L

в форуме Драмы, Мелодрамы, Размер: 1.46 ГБ, Здоровье: 0%

Гость

0
0|0

122
2

11 апр 2016, 21:22

Гость Перейти к последнему сообщению

В этой теме нет новых непрочитанных сообщений. Скачать торрент Идеальный побег / A Perfect Getaway (Дэвид Туи / David Twohy) [2009, триллер, драма, детектив, BDRip-AVC] [Theatrical Cut]

в форуме 720p | 1080p, Размер: 2.59 ГБ, Здоровье: 100%

Anonymous

0
25|8

46
0

19 фев 2014, 11:41

Anonymous Перейти к последнему сообщению

В этой теме нет новых непрочитанных сообщений. Скачать торрент Когда звонит незнакомец / When a Stranger Calls (Саймон Уэст / Simon West) [2006 г., Ужасы, триллер, HDTVRip] Dub

в форуме Ужасы, Размер: 1.45 ГБ, Здоровье: 100%

Anonymous

0
17|5

46
0

17 фев 2014, 08:06

Anonymous Перейти к последнему сообщению

В этой теме нет новых непрочитанных сообщений. Скачать торрент Проверен Идеальный шторм / The Perfect Storm (2000) HDRip | D

в форуме Боевики, Размер: 1.45 ГБ, Здоровье: 100%

Anonymous

0
103|79

77
21

25 апр 2015, 18:32

Anonymous Перейти к последнему сообщению



Сейчас этот форум просматривают: нет зарегистрированных пользователей и гости: 1


Вы не можете начинать темы
Вы не можете отвечать на сообщения
Вы не можете редактировать свои сообщения
Вы не можете удалять свои сообщения
Вы не можете добавлять вложения

Перейти:  

!ВНИМАНИЕ!
 Ресурс не предоставляет электронные версии произведений, а занимается лишь коллекционированием и каталогизацией ссылок, присылаемых и публикуемых на форуме нашими читателями. Если вы являетесь правообладателем какого-либо представленного материала и не желаете чтобы ссылка на него находилась в нашем каталоге, свяжитесь с нами и мы незамедлительно удалим её. Файлы для обмена на трекере предоставлены пользователями сайта, и администрация не несёт ответственности за их содержание. Просьба не заливать файлы, защищенные авторскими правами, а также файлы нелегального содержания!