На всех торрентах на трекере установлена скидка на скачивание в размере 100 процентов(а).
 Возможность скачивания торрента НЕ зависит от ограничений при низком ратио, низком аплоаде, требуемом ратио или требуемом аплоаде.


Начать новую тему Ответить на тему
Статистика раздачи
Размер: 7.51 ГБ | Добавлен: 01 мар 2014, 09:30 | Скачали: 0
Сидеров: 0  [0 байт/сек]    Личеров: 0  [0 байт/сек]
Пред. тема | След. тема 

Автор
Сообщение

СообщениеДобавлено: 01 мар 2014, 09:30 

Вкратце: Монстр Адам, созданный доктором Франкенштейном, благодаря своим уникальным генам доживает до наших дней. Оказавшись в мрачном готическом метрополисе, он попадает в самую гущу вековой войны между двумя кланами бессмертных существ... Мрачное порождение Виктора Франкенштейна живёт уединённой жизнью, понимая, что он другой, и что ему не место среди простых людей. Впрочем, пока не натыкается на гаргулий.... Да, если бы не демоны, которым Адам нужен в виде подопытной крысы, он бы никогда не вернулся из добровольной ссылки. Возвращение Адама превращает зыбкое равновесие в войну на истребление. Сам он оказывается в эпицентре конфликта, и, не осознавая, что является ключевой фигурой в игре вечных противников, яростно вступает в схватку с адскими тварями...


Название: Я, Франкенштейн
Оригинальное название: I, Frankenstein
Год выпуска: 2014
Жанр: Фэнтези, боевик, приключения
Выпущено: США, Австралия, Hopscotch Features, Lakeshore Entertainment
Режиссер: Стюарт Битти

В ролях: Аарон Экхарт, Ивонн Страховски, Билл Найи, Джай Кортни, Миранда Отто, Кэйтлин Стэйси, Кевин Гревье, Аден Янг, Дениз Акдениз, Крис Пэнг, Вирджиния Ле Брун






Качество: BDRip (1080p)
Видео: MPEG-4 AVC, 9400 Кбит/с, 1920x804
Аудио: Русский (AC3, 6 ch, 640 Кбит/с), (DTS, 6 ch, 1510 Кбит/с)

Продолжительность: 01:33:10
Перевод: Дублированный [лицензия]

Общее
Уникальный идентификатор : 214597759538999337339157597969663851395 (0xA172066D92C8CF49B23C726A082EFB83)
Полное имя : C:Ya.Frankenstein.2014.1080p.CMEGRoup.mkv
Формат : Matroska
Версия формата : Version 2
Размер файла : 7,51 Гбайт
Продолжительность : 1 ч. 33 м.
Общий поток : 11,5 Мбит/сек
Название фильма : CMEGRoup
Дата кодирования : UTC 2014-03-01 05:58:14
Программа кодирования : mkvmerge v6.7.0 ('Back to the Ground') 64bit built on Jan 8 2014 15:10:52
Библиотека кодирования : libebml v1.3.0 + libmatroska v1.4.1
Видео
Идентификатор : 1
Формат : AVC
Формат/Информация : Advanced Video Codec
Профиль формата : High@L4.1
Параметр CABAC формата : Да
Параметр ReFrames формата : 5 кадров
Идентификатор кодека : V_MPEG4/ISO/AVC
Продолжительность : 1 ч. 33 м.
Битрейт : 9400 Кбит/сек
Ширина : 1920 пикселей
Высота : 804 пикселя
Соотношение сторон : 2,40:1
Режим частоты кадров : Постоянный
Частота кадров : 23,976 кадра/сек
Цветовое пространство : YUV
Субдискретизация насыщенности : 4:2:0
Битовая глубина : 8 бит
Тип развёртки : Прогрессивная
Бит/(Пиксели*Кадры) : 0.254
Размер потока : 5,96 Гбайт (79%)
Библиотека кодирования : x264 core 138 r2358 9e941d1
Настройки программы : cabac=1 / ref=5 / deblock=1:-3:-3 / analyse=0x3:0x113 / me=umh / subme=11 / psy=1 / psy_rd=1.00:0.00 / mixed_ref=1 / me_range=32 / chroma_me=1 / trellis=2 / 8x8dct=1 / cqm=0 / deadzone=21,11 / fast_pskip=1 / chroma_qp_offset=-2 / threads=12 / lookahead_threads=1 / sliced_threads=0 / nr=0 / decimate=1 / interlaced=0 / bluray_compat=0 / constrained_intra=0 / bframes=5 / b_pyramid=2 / b_adapt=1 / b_bias=0 / direct=2 / weightb=1 / open_gop=0 / weightp=2 / keyint=240 / keyint_min=23 / scenecut=40 / intra_refresh=0 / rc_lookahead=40 / rc=2pass / mbtree=1 / bitrate=9400 / ratetol=1.0 / qcomp=0.60 / qpmin=10 / qpmax=51 / qpstep=4 / cplxblur=20.0 / qblur=0.5 / vbv_maxrate=62500 / vbv_bufsize=78125 / nal_hrd=none / ip_ratio=1.40 / aq=1:1.00 / zones=122391,133872,q=40
Язык : English
Default : Да
Forced : Нет
Аудио #1
Идентификатор : 2
Формат : DTS
Формат/Информация : Digital Theater Systems
Режим : 16
Параметр Endianness формата : Big
Идентификатор кодека : A_DTS
Продолжительность : 1 ч. 33 м.
Вид битрейта : Постоянный
Битрейт : 1509 Кбит/сек
Каналы : 6 каналов
Расположение каналов : Front: L C R, Side: L R, LFE
Частота : 48,0 КГц
Битовая глубина : 16 бит
Метод сжатия : С потерями
Размер потока : 1004 Мбайт (13%)
Default : Да
Forced : Нет
Аудио #2
Идентификатор : 3
Формат : AC-3
Формат/Информация : Audio Coding 3
Расширение режима : CM (complete main)
Параметр Endianness формата : Big
Идентификатор кодека : A_AC3
Продолжительность : 1 ч. 33 м.
Вид битрейта : Постоянный
Битрейт : 640 Кбит/сек
Каналы : 6 каналов
Расположение каналов : Front: L C R, Side: L R, LFE
Частота : 48,0 КГц
Битовая глубина : 16 бит
Метод сжатия : С потерями
Размер потока : 426 Мбайт (6%)
Язык : Russian
Default : Нет
Forced : Нет
Меню #1
00:00:00.000 : en:00:00:00.000
00:12:24.077 : en:00:12:24.077
00:22:07.785 : en:00:22:07.785
00:33:21.958 : en:00:33:21.958
00:44:51.772 : en:00:44:51.772
00:56:45.527 : en:00:56:45.527
01:07:12.487 : en:01:07:12.487
01:21:14.661 : en:01:21:14.661







Релиз от:
загрузка...
Правила, инструкции, FAQ!!!
Торрент  Добавлен [01 мар 2014, 09:30] Скачать торрент
Скачать торрент
[ Размер 38.04 КБ / Просмотров 7 ]

Статус  
 
Размер  7.51 ГБ
Приватный: Нет (DHT включён)
.torrent скачан  0
Как залить торрент? | Как скачать Torrent? | Как смотреть и слушать онлайн?  


     Отправить личное сообщение
   
Страница 1 из 1
Показать сообщения за:  Поле сортировки  
Начать новую тему Ответить на тему

   Похожие торренты   Автор   Ответы   Просмотры   Последнее сообщение 
В этой теме нет новых непрочитанных сообщений. Скачать торрент Я, Франкенштейн / I, Frankenstein (2014) BDRemux 1080p | Лицензия

в форуме BD-Remux, Размер: 14.38 ГБ, Здоровье: 100%

Anonymous

0
107|2

223
4

01 мар 2014, 08:24

Anonymous Перейти к последнему сообщению

В этой теме нет новых непрочитанных сообщений. Я, Франкенштейн / I, Frankenstein (2014) DVDRip | Лицензия

в форуме Новинки кино, Размер: 1.37 ГБ, Здоровье: 100%

Anonymous

0
246|9

73
11

28 фев 2014, 19:12

Anonymous Перейти к последнему сообщению

В этой теме нет новых непрочитанных сообщений. Скачать торрент Я, Франкенштейн / I, Frankenstein (2013) BDRip 1080p от Ash61 | 3D-Video | halfOU

в форуме HD-Video в 3D, Размер: 8.29 ГБ, Здоровье: 100%

Anonymous

0
156|13

87
1773

02 мар 2014, 09:04

Anonymous Перейти к последнему сообщению

В этой теме нет новых непрочитанных сообщений. Скачать торрент Проверен Виктор Франкенштейн / Victor Frankenstein (2015) WEB-DLRip | iTunes

в форуме Ужасы, Размер: 1.45 ГБ, Здоровье: 100%

Гость

0
4486|1251

254
13

20 фев 2016, 20:49

Гость Перейти к последнему сообщению

В этой теме нет новых непрочитанных сообщений. Скачать торрент Проверен [PSP] Смертельная гонка 2: Франкенштейн жив / Death Race 2: Frankenstein Lives (2010) DVDRip

в форуме Видео для смартфонов и КПК, Размер: 645.18 МБ, Здоровье: 100%

Anonymous

0
2|1

44
0

25 окт 2014, 23:14

Anonymous Перейти к последнему сообщению



Сейчас этот форум просматривают: нет зарегистрированных пользователей и гости: 3


Вы не можете начинать темы
Вы не можете отвечать на сообщения
Вы не можете редактировать свои сообщения
Вы не можете удалять свои сообщения
Вы не можете добавлять вложения

Перейти:  

!ВНИМАНИЕ!
 Ресурс не предоставляет электронные версии произведений, а занимается лишь коллекционированием и каталогизацией ссылок, присылаемых и публикуемых на форуме нашими читателями. Если вы являетесь правообладателем какого-либо представленного материала и не желаете чтобы ссылка на него находилась в нашем каталоге, свяжитесь с нами и мы незамедлительно удалим её. Файлы для обмена на трекере предоставлены пользователями сайта, и администрация не несёт ответственности за их содержание. Просьба не заливать файлы, защищенные авторскими правами, а также файлы нелегального содержания!