На всех торрентах на трекере установлена скидка на скачивание в размере 100 процентов(а).
 Возможность скачивания торрента НЕ зависит от ограничений при низком ратио, низком аплоаде, требуемом ратио или требуемом аплоаде.


Начать новую тему Ответить на тему
Статистика раздачи
Размер: 1.35 ГБ | Добавлен: 24 дек 2012, 16:51 | Скачали: 1
Сидеров: 0  [0 байт/сек]    Личеров: 0  [0 байт/сек]
Пред. тема | След. тема 

Автор
Сообщение

СообщениеДобавлено: 24 дек 2012, 16:51 

Название: Козел отпущения
Оригинальное название: The Scapegoat
Год выхода: 2012
Жанр: Драма
Режиссер: Чарльз Старридж / Charles Sturridge
В ролях: Эндрю Скотт, Шеридан Смит, Джоди Мэй, Мэттью Риз, Айлин Эткинс, Фиби Николлс, Энтон Лессер, Пип Торренс, Сильви Тестю, Джулиан Уэдэм

Описание: В одном из лондонских пабов совершенно случайно встречаются аристократ, владелец стекольного завода Джонни Спэнс и потерявший работу учитель Джон Стэндинг. Возможно, обоюдного интереса никогда бы не возникло, если бы не одно поразительное обстоятельство - они похожи друг на друга, словно близнецы! Аристократу, уставшему от рутины руководства заводом и презирающего бесконечных своих родственников, захотелось хлебнуть свободы. И он делает всё, что бы следующее похмельное утро поменяло их местами. Никто даже подумать не мог, к каким последствиям приведет эта подмена! Экранизация классического одноименного романа Дафны дю Морье.

Страна: Великобритания
Продолжительность: 01:40:18
Перевод: Профессиональный (многоголосый, закадровый) - BaibaKo
Субтитры: нет



Перевод: vipere
Озвучка: Алексей Кузнецов, Ольга Мотрич, Лира Грим и Владимир Курдов
Сведение: Павел Дежин


Качество: HDTVRip
Формат: mp4
Видео кодек: AVC
Аудио кодек: AAC
Видео: 1536 Кбит/сек 720x400 25,000 кадров/сек
Аудио Rus: AAC 2 канала, 48,0 КГц 192 Кбит/сек
Аудио Eng: AAC 2 канала, 48,0 КГц 192 Кбит/сек

Полное имя : D:The.Scapegoat.HDTVRip.x264.Rus.Eng.BaibaKo.tv.mp4
Формат : MPEG-4
Профиль формата : Base Media
Идентификатор кодека : isom
Размер файла : 1,35 Гбайт
Продолжительность : 1 ч. 40 м.
Общий поток : 1923 Кбит/сек
Дата кодирования : UTC 2012-12-24 10:14:41
Дата пометки : UTC 2012-12-24 10:14:41

Видео
Идентификатор : 1
Формат : AVC
Формат/Информация : Advanced Video Codec
Профиль формата : Baseline@L3.0
Параметр CABAC формата : Нет
Параметр ReFrames формата : 3 кадра
Идентификатор кодека : avc1
Идентификатор кодека/Информация : Advanced Video Coding
Продолжительность : 1 ч. 40 м.
Вид битрейта : Переменный
Битрейт : 1536 Кбит/сек
Максимальный битрейт : 10000 Кбит/сек
Ширина : 720 пикс.
Высота : 400 пикс.
Соотношение сторон : 16:9
Режим частоты кадров : Постоянный
Частота кадров : 25,000 кадр/сек
Цветовое пространство : YUV
Подвыборка цветности : 4:2:0
Битовая глубина : 8 бит
Тип развёртки : Прогрессивная
Бит/(Пиксели*Кадры) : 0.213
Размер потока : 1,08 Гбайт (80%)
Заголовок : scapegoat hannibal
Библиотека кодирования : x264 core 125 r2208 d9d2288
Настройки программы : cabac=0 / ref=3 / deblock=1:0:0 / analyse=0x1:0x111 / me=hex / subme=7 / psy=1 / psy_rd=1.00:0.00 / mixed_ref=1 / me_range=16 / chroma_me=1 / trellis=1 / 8x8dct=0 / cqm=0 / deadzone=21,11 / fast_pskip=1 / chroma_qp_offset=-2 / threads=6 / lookahead_threads=1 / sliced_threads=0 / nr=0 / decimate=1 / interlaced=0 / bluray_compat=0 / constrained_intra=0 / bframes=0 / weightp=0 / keyint=250 / keyint_min=25 / scenecut=40 / intra_refresh=0 / rc_lookahead=40 / rc=2pass / mbtree=1 / bitrate=1536 / ratetol=1.0 / qcomp=0.60 / qpmin=0 / qpmax=69 / qpstep=4 / cplxblur=20.0 / qblur=0.5 / vbv_maxrate=10000 / vbv_bufsize=10000 / nal_hrd=vbr / ip_ratio=1.40 / aq=1:1.00
Дата кодирования : UTC 2012-12-24 06:01:50
Дата пометки : UTC 2012-12-24 10:19:12

Аудио #1
Идентификатор : 2
Формат : AAC
Формат/Информация : Advanced Audio Codec
Профиль формата : LC
Идентификатор кодека : 40
Продолжительность : 1 ч. 40 м.
Вид битрейта : Переменный
Битрейт : 192 Кбит/сек
Максимальный битрейт : 199 Кбит/сек
Каналы : 2 канала
Расположение каналов : Front: L R
Частота : 48,0 КГц
Метод сжатия : С потерями
Размер потока : 138 Мбайт (10%)
Язык : Russian
Дата кодирования : UTC 2012-12-24 10:19:04
Дата пометки : UTC 2012-12-24 10:19:12

Аудио #2
Идентификатор : 3
Формат : AAC
Формат/Информация : Advanced Audio Codec
Профиль формата : LC
Идентификатор кодека : 40
Продолжительность : 1 ч. 40 м.
Вид битрейта : Переменный
Битрейт : 192 Кбит/сек
Максимальный битрейт : 199 Кбит/сек
Каналы : 2 канала
Расположение каналов : Front: L R
Частота : 48,0 КГц
Метод сжатия : С потерями
Размер потока : 138 Мбайт (10%)
Язык : English
Дата кодирования : UTC 2012-12-24 10:19:07
Дата пометки : UTC 2012-12-24 10:19:12

загрузка...
Правила, инструкции, FAQ!!!
Торрент  Добавлен [24 дек 2012, 16:51] Скачать торрент
Скачать торрент
[ Размер 13.89 КБ / Просмотров 23 ]

Статус
Проверен 
 
Размер  1.35 ГБ
Приватный: Нет (DHT включён)
.torrent скачан  1
Как залить торрент? | Как скачать Torrent? | Как смотреть и слушать онлайн?  


     Отправить личное сообщение
   
Страница 1 из 1
Показать сообщения за:  Поле сортировки  
Начать новую тему Ответить на тему

   Похожие торренты   Автор   Ответы   Просмотры   Последнее сообщение 
В этой теме нет новых непрочитанных сообщений. Скачать торрент Проверен Козёл отпущения / The Scapegoat (2012) DVDRip | P2

в форуме Драмы, Мелодрамы, Размер: 1.37 ГБ, Здоровье: 100%

Anonymous

0
61|27

123
53

16 окт 2016, 17:53

Anonymous Перейти к последнему сообщению

В этой теме нет новых непрочитанных сообщений. Скачать торрент Проверен Дюморье Дафна - Козел отпущения (роман); Яблоня, Доля секунды (рассказы) [Юрий Заборовский, 2000]

в форуме Детектив и Боевики, Размер: 977.04 МБ, Здоровье: 100%

Anonymous

0
19|6

6
0

04 май 2016, 22:34

Anonymous Перейти к последнему сообщению

В этой теме нет новых непрочитанных сообщений. Скачать торрент Проверен Детектив Уайклифф - Джон Берли - Уайклифф и козел отпущения [1998, RTF,FB2, RUS]

в форуме Детективы и Боевики, Размер: 733.92 КБ, Здоровье: 0%

Anonymous

0
0|0

20
0

08 сен 2016, 20:39

Anonymous Перейти к последнему сообщению

В этой теме нет новых непрочитанных сообщений. Скачать торрент Проверен (Punk Rock) Alexander Zima & Энтропия - Скоро наступит день отпущения грехов - 2012, MP3, 320 kbps

в форуме Русский Рок, Размер: 117.29 МБ, Здоровье: 100%

Anonymous

0
2|1

4
0

22 авг 2016, 02:06

Anonymous Перейти к последнему сообщению

В этой теме нет новых непрочитанных сообщений. Скачать торрент Проверен (Avant Progressive/RIO) Ensemble Nimbus - Scapegoat - 1998, APE (image+.cue), lossless

в форуме Progressive & Art-Rock, Размер: 299.41 МБ, Здоровье: 0%

Anonymous

0
0|0

4
0

02 сен 2016, 13:08

Anonymous Перейти к последнему сообщению



Сейчас этот форум просматривают: Google [Bot] и гости: 1


Вы не можете начинать темы
Вы не можете отвечать на сообщения
Вы не можете редактировать свои сообщения
Вы не можете удалять свои сообщения
Вы не можете добавлять вложения

Перейти:  

!ВНИМАНИЕ!
 Ресурс не предоставляет электронные версии произведений, а занимается лишь коллекционированием и каталогизацией ссылок, присылаемых и публикуемых на форуме нашими читателями. Если вы являетесь правообладателем какого-либо представленного материала и не желаете чтобы ссылка на него находилась в нашем каталоге, свяжитесь с нами и мы незамедлительно удалим её. Файлы для обмена на трекере предоставлены пользователями сайта, и администрация не несёт ответственности за их содержание. Просьба не заливать файлы, защищенные авторскими правами, а также файлы нелегального содержания!