На всех торрентах на трекере установлена скидка на скачивание в размере 100 процентов(а).
 Возможность скачивания торрента НЕ зависит от ограничений при низком ратио, низком аплоаде, требуемом ратио или требуемом аплоаде.


Начать новую тему Ответить на тему
Статистика раздачи
Размер: 4.66 ГБ | Добавлен: 01 мар 2014, 08:46 | Скачали: 0
Сидеров: 2  [0 байт/сек]    Личеров: 2  [0 байт/сек]
Пред. тема | След. тема 

Автор
Сообщение

СообщениеДобавлено: 01 мар 2014, 08:46 

Год выпуска: 2012
Страна: Германия
Слоган: «В чём ваша проблема, Владимир?»

Жанр: комедия, мелодрама

Продолжительность: 01:40:15

Перевод: Профессиональный (многоголосый, закадровый, R5)
Оригинальная звуковая дорожка
Субтитры: Русские (*.srt)

Режиссёр: Оливер Цигенбальг / Oliver Ziegenbalg

В ролях: Маттиас Швайгхефер, Фридрих Мюке, Кристиан Фридель, Пери Баумейстер, Сюзанна Борман, Имоген Когге, Райнер Бок, Фелина Рогган, Юля Бёве, Вальдемар Кобус

Описание: Используя переломный момент в истории Восточной Европы, трое молодых людей эмигрируют летом 1990 года из России в Германию. Прибыв в Восточный Берлин, они начинают новую жизнь.

Релиз от:
Автор рипа: serokuz74


Формат: MKV
Качество: BDRip 720p (Исходник: Blu-ray Remux /1080p)
Видео: 1280x720 at 23.976 fps, x264@L4.1, 2pass, ~5633 kbps avg
Аудио #1: 48 kHz, AC3 Dolby Digital, 3/2 (L,C,R,l,r) + LFE ch, ~384 kbps |MVO, R5|
Аудио #2: 48 kHz, AC3 Dolby Digital, 3/2 (L,C,R,l,r) + LFE ch, ~640 kbps |GER|

Скачать: Семпл

General
Unique ID : 207849591020059069801553861714634132676 (0x9C5E600859B4BDDEB3703E293F78CCC4)
Complete name : D:Ya.Normalno.Super.Gud.2012.BDRip.720p.DUAL.-HELLYWOOD.mkv
Format : Matroska
Format version : Version 2
File size : 4.66 GiB
Duration : 1h 40mn
Overall bit rate : 6 659 Kbps
Movie name : Russendisko (2012) - http://hellywood.ru/
Encoded date : UTC 2014-01-30 15:58:29
Writing application : mkvmerge v6.7.0 ('Back to the Ground') 32bit built on Jan 8 2014 15:03:17
Writing library : libebml v1.3.0 + libmatroska v1.4.1

Video
ID : 1
Format : AVC
Format/Info : Advanced Video Codec
Format profile : High@L4.1
Format settings, CABAC : Yes
Format settings, ReFrames : 9 frames
Codec ID : V_MPEG4/ISO/AVC
Duration : 1h 40mn
Bit rate : 5 633 Kbps
Width : 1 280 pixels
Height : 720 pixels
Display aspect ratio : 16:9
Frame rate : 23.976 fps
Color space : YUV
Chroma subsampling : 4:2:0
Bit depth : 8 bits
Scan type : Progressive
Bits/(Pixel*Frame) : 0.255
Stream size : 3.85 GiB (83%)
Title : serokuz74
Writing library : x264 core 142 r2389kMod 956c8d8
Encoding settings : cabac=1 / ref=9 / deblock=1:-3:-3 / analyse=0x3:0x133 / me=umh / subme=11 / psy=1 / fade_compensate=0.00 / psy_rd=1.00:0.00 / mixed_ref=1 / me_range=48 / chroma_me=1 / trellis=2 / 8x8dct=1 / cqm=0 / deadzone=21,11 / fast_pskip=0 / chroma_qp_offset=-2 / threads=12 / lookahead_threads=2 / sliced_threads=0 / nr=0 / decimate=0 / interlaced=0 / bluray_compat=0 / constrained_intra=0 / fgo=0 / bframes=11 / b_pyramid=2 / b_adapt=2 / b_bias=0 / direct=3 / weightb=1 / open_gop=0 / weightp=2 / keyint=250 / keyint_min=23 / scenecut=40 / intra_refresh=0 / rc_lookahead=60 / rc=2pass / mbtree=0 / bitrate=5633 / ratetol=1.0 / qcomp=0.60 / qpmin=0 / qpmax=69 / qpstep=4 / cplxblur=20.0 / qblur=0.5 / vbv_maxrate=50000 / vbv_bufsize=62500 / nal_hrd=none / filler=0 / ip_ratio=1.40 / pb_ratio=1.30 / aq=2:0.80
Language : English
Default : Yes
Forced : No
Matrix coefficients : BT.709-5, BT.1361, IEC 61966-2-4 709, SMPTE RP177

Audio #1
ID : 2
Format : AC-3
Format/Info : Audio Coding 3
Mode extension : CM (complete main)
Format settings, Endianness : Big
Codec ID : A_AC3
Duration : 1h 40mn
Bit rate mode : Constant
Bit rate : 384 Kbps
Channel(s) : 6 channels
Channel positions : Front: L C R, Side: L R, LFE
Sampling rate : 48.0 KHz
Bit depth : 16 bits
Compression mode : Lossy
Stream size : 275 MiB (6%)
Title : AC3 5.1 @ 384 kbps - MVO, R5
Language : Russian
Default : Yes
Forced : No

Audio #2
ID : 3
Format : AC-3
Format/Info : Audio Coding 3
Mode extension : CM (complete main)
Format settings, Endianness : Big
Codec ID : A_AC3
Duration : 1h 40mn
Bit rate mode : Constant
Bit rate : 640 Kbps
Channel(s) : 6 channels
Channel positions : Front: L C R, Side: L R, LFE
Sampling rate : 48.0 KHz
Bit depth : 16 bits
Compression mode : Lossy
Stream size : 459 MiB (10%)
Title : AC3 5.1 @ 640 kbps - Original
Language : German
Default : No
Forced : No

Text
ID : 4
Format : UTF-8
Codec ID : S_TEXT/UTF8
Codec ID/Info : UTF-8 Plain Text
Title : Full
Language : Russian
Default : No
Forced : No

Menu
00:00:00.000 : en:Chapter 01
00:02:25.687 : en:Chapter 02
00:05:34.876 : en:Chapter 03
00:10:10.359 : en:Chapter 04
00:14:23.946 : en:Chapter 05
00:18:47.751 : en:Chapter 06
00:22:43.028 : en:Chapter 07
00:29:06.077 : en:Chapter 08
00:36:03.077 : en:Chapter 09
00:43:38.324 : en:Chapter 10
00:49:06.860 : en:Chapter 11
00:57:00.750 : en:Chapter 12
01:01:27.684 : en:Chapter 13
01:05:21.626 : en:Chapter 14
01:09:33.669 : en:Chapter 15
01:15:03.290 : en:Chapter 16
01:22:32.948 : en:Chapter 17
01:27:49.722 : en:Chapter 18
01:31:44.957 : en:Chapter 19
01:34:03.804 : en:Chapter 20

x264 [info]: frame I:1018 Avg QP:13.16 size:152223
x264 [info]: frame P:28139 Avg QP:15.87 size: 64217
x264 [info]: frame B:115059 Avg QP:17.75 size: 19755
x264 [info]: consecutive B-frames: 1.3% 1.1% 3.9% 14.8% 14.8% 56.2% 5.1% 0.7% 0.7% 0.4% 0.4% 0.6%
x264 [info]: mb I I16..4: 6.8% 70.9% 22.3%
x264 [info]: mb P I16..4: 0.8% 11.2% 1.3% P16..4: 25.7% 30.4% 17.4% 3.1% 0.4% skip: 9.7%
x264 [info]: mb B I16..4: 0.1% 1.0% 0.1% B16..8: 29.5% 22.3% 5.8% direct: 7.2% skip:33.9% L0:44.5% L1:39.6% BI:15.9%
x264 [info]: 8x8 transform intra:81.2% inter:51.2%
x264 [info]: direct mvs spatial:97.1% temporal:2.9%
x264 [info]: coded y,uvDC,uvAC intra: 83.5% 83.0% 69.4% inter: 30.3% 27.9% 14.0%
x264 [info]: i16 v,h,dc,p: 45% 15% 10% 31%
x264 [info]: i8 v,h,dc,ddl,ddr,vr,hd,vl,hu: 11% 9% 12% 9% 12% 12% 12% 11% 13%
x264 [info]: i4 v,h,dc,ddl,ddr,vr,hd,vl,hu: 12% 11% 8% 8% 14% 12% 12% 10% 12%
x264 [info]: i8c dc,h,v,p: 48% 22% 16% 14%
x264 [info]: Weighted P-Frames: Y:2.9% UV:2.1%
x264 [info]: ref P L0: 44.1% 10.1% 16.0% 8.6% 6.6% 5.2% 4.4% 2.8% 2.0% 0.1% 0.0%
x264 [info]: ref B L0: 75.9% 11.3% 5.2% 2.8% 2.1% 1.5% 0.9% 0.3%
x264 [info]: ref B L1: 95.0% 5.0%

Скриншоты:

загрузка...
Правила, инструкции, FAQ!!!
Торрент  Добавлен [01 мар 2014, 08:46] Скачать торрент
Скачать торрент
[ Размер 12.23 КБ / Просмотров 7 ]

Статус  
 
Размер  4.66 ГБ
Приватный: Нет (DHT включён)
.torrent скачан  0
Как залить торрент? | Как скачать Torrent? | Как смотреть и слушать онлайн?  


     Отправить личное сообщение
   
Страница 1 из 1
Показать сообщения за:  Поле сортировки  
Начать новую тему Ответить на тему

   Похожие торренты   Автор   Ответы   Просмотры   Последнее сообщение 
В этой теме нет новых непрочитанных сообщений. Скачать торрент Супер / Super (2010) BDRip 720p

в форуме 720p | 1080p, Размер: 4.9 ГБ, Здоровье: 0%

Anonymous

0
0|0

40
0

16 мар 2014, 09:28

Anonymous Перейти к последнему сообщению

В этой теме нет новых непрочитанных сообщений. Скачать торрент Супер Рино / Super Rhino (2009) BDRip 720p

в форуме Зарубежные мультфильмы (HD Video), Размер: 150.1 МБ, Здоровье: 100%

Anonymous

0
32|4

66
6

19 янв 2014, 12:40

Anonymous Перейти к последнему сообщению

В этой теме нет новых непрочитанных сообщений. Скачать торрент Проверен [iPad] Супер Майк / Magic Mike (Стивен Содерберг/Steven Soderbergh) [2012, Драма, комедия, BDRip, 1024x432] Dub, Original, Eng Sub

в форуме Фильмы для iPod, iPhone, iPad, Размер: 1.94 ГБ, Здоровье: 100%

Anonymous

0
16|5

34
0

14 май 2015, 00:00

Anonymous Перейти к последнему сообщению

В этой теме нет новых непрочитанных сообщений. Скачать торрент Проверен (MP4 480x272) Супер 8 / Super 8 (2011) BDRip

в форуме Видео для смартфонов и КПК, Размер: 497.36 МБ, Здоровье: 100%

Anonymous

0
3|2

30
0

25 окт 2014, 23:22

Anonymous Перейти к последнему сообщению

В этой теме нет новых непрочитанных сообщений. Скачать торрент Проверен Супер Майк XXL / Magic Mike XXL (2015) BDRip-AVC | iTunes

в форуме Комедии, Размер: 745.66 МБ, Здоровье: 100%

Anonymous

0
203|27

96
292

17 окт 2015, 18:24

Anonymous Перейти к последнему сообщению



Сейчас этот форум просматривают: нет зарегистрированных пользователей и гости: 1


Вы не можете начинать темы
Вы не можете отвечать на сообщения
Вы не можете редактировать свои сообщения
Вы не можете удалять свои сообщения
Вы не можете добавлять вложения

Перейти:  

!ВНИМАНИЕ!
 Ресурс не предоставляет электронные версии произведений, а занимается лишь коллекционированием и каталогизацией ссылок, присылаемых и публикуемых на форуме нашими читателями. Если вы являетесь правообладателем какого-либо представленного материала и не желаете чтобы ссылка на него находилась в нашем каталоге, свяжитесь с нами и мы незамедлительно удалим её. Файлы для обмена на трекере предоставлены пользователями сайта, и администрация не несёт ответственности за их содержание. Просьба не заливать файлы, защищенные авторскими правами, а также файлы нелегального содержания!