На всех торрентах на трекере установлена скидка на скачивание в размере 100 процентов(а).
 Возможность скачивания торрента НЕ зависит от ограничений при низком ратио, низком аплоаде, требуемом ратио или требуемом аплоаде.


Начать новую тему Ответить на тему
Статистика раздачи
Размер: 13.38 ГБ | Добавлен: 28 фев 2014, 11:48 | Скачали: 10
Сидеров: 29  [0 байт/сек]    Личеров: 0  [0 байт/сек]
Пред. тема | След. тема 

Автор
Сообщение

СообщениеДобавлено: 28 фев 2014, 11:48 

Вкратце: Германия, начало 1939 года, канун Второй мировой войны. Смерть готовится начать свою жатву. Девятилетняя Лизель переезжает в Мюнхен к своим приемным родителям и с их помощью учится читать. С каждым днем чтение становится ее жизненной потребностью, и Лизель начинает воровать книги — единственную отраду ее жизни. Все, что она узнает из них, помогает ей понять события, происходящие вокруг нее — гонение на евреев, антифашистское движение, унижения и голод. Все это, в конце концов, сложится в ее собственную историю, историю ее жизни.


Название: Воровка книг
Оригинальное название: The Book Thief
Год выпуска: 2013
Жанр: Драма, военный
Выпущено: США, Германия, Fox 2000 Pictures, Studio Babelsberg
Режиссер: Брайан Персивал

В ролях: Софи Нелисс, Джеффри Раш, Эмили Уотсон, Роджер Аллам, Хайке Макатч, Джулиан Леманн, Готард Ланге, Райнер Рейнерс, Керстен Блок, Нико Лирш






Качество: BDRip (1080p)
Видео: MPEG-4 AVC, 10.6 Мбит/с, 1920x800
Аудио: Русский (DTS, 6 ch, 768 Кбит/с), (AC3, 6 ch, 448 Кбит/с), английский (DTS, 6 ch, 1510 Кбит/с)

Продолжительность: 02:11:00
Перевод: Дублированный [лицензия]
Субтитры: Русские, английские

Общее
Уникальный идентификатор : 249344455566362914849607154335142304964 (0xBB95FECEE0F5445BA45597EFF9E2DCC4)
Полное имя : C:Vorovka.Knig.2013.D.BDRip.1080p.mkv
Формат : Matroska
Версия формата : Version 2
Размер файла : 13,4 Гбайт
Продолжительность : 2 ч. 10 м.
Общий поток : 14,6 Мбит/сек
Название фильма : The.Book.Thief.2013.BluRay.1080p.DTS.x264-CHD
Дата кодирования : UTC 2014-02-28 07:10:33
Программа кодирования : mkvmerge v6.7.0 ('Back to the Ground') 64bit built on Jan 8 2014 15:10:52
Библиотека кодирования : libebml v1.3.0 + libmatroska v1.4.1
Видео
Идентификатор : 1
Формат : AVC
Формат/Информация : Advanced Video Codec
Профиль формата : High@L4.1
Параметр CABAC формата : Да
Параметр ReFrames формата : 5 кадров
Идентификатор кодека : V_MPEG4/ISO/AVC
Продолжительность : 2 ч. 10 м.
Битрейт : 11,9 Мбит/сек
Ширина : 1920 пикселей
Высота : 800 пикселей
Соотношение сторон : 2,40:1
Режим частоты кадров : Постоянный
Частота кадров : 23,976 кадра/сек
Цветовое пространство : YUV
Субдискретизация насыщенности : 4:2:0
Битовая глубина : 8 бит
Тип развёртки : Прогрессивная
Бит/(Пиксели*Кадры) : 0.324
Размер потока : 10,6 Гбайт (79%)
Заголовок : hahay0yo@CHD
Библиотека кодирования : x264 core 138 r2356 a1d3d17
Настройки программы : cabac=1 / ref=5 / deblock=1:-3:-3 / analyse=0x3:0x113 / me=umh / subme=10 / psy=1 / psy_rd=1.00:0.05 / mixed_ref=1 / me_range=32 / chroma_me=1 / trellis=2 / 8x8dct=1 / cqm=0 / deadzone=21,11 / fast_pskip=0 / chroma_qp_offset=-2 / threads=18 / lookahead_threads=1 / sliced_threads=0 / nr=0 / decimate=1 / interlaced=0 / bluray_compat=0 / constrained_intra=0 / bframes=6 / b_pyramid=2 / b_adapt=2 / b_bias=0 / direct=3 / weightb=1 / open_gop=0 / weightp=2 / keyint=250 / keyint_min=23 / scenecut=40 / intra_refresh=0 / rc=2pass / mbtree=0 / bitrate=11914 / ratetol=1.0 / qcomp=0.70 / qpmin=0 / qpmax=69 / qpstep=4 / cplxblur=20.0 / qblur=0.5 / ip_ratio=1.40 / pb_ratio=1.30 / aq=2:0.90
Язык : English
Default : Да
Forced : Нет
Аудио #1
Идентификатор : 2
Формат : DTS
Формат/Информация : Digital Theater Systems
Режим : 16
Параметр Endianness формата : Big
Идентификатор кодека : A_DTS
Продолжительность : 2 ч. 10 м.
Вид битрейта : Постоянный
Битрейт : 768 Кбит/сек
Каналы : 6 каналов
Расположение каналов : Front: L C R, Side: L R, LFE
Частота : 48,0 КГц
Битовая глубина : 24 бит
Метод сжатия : С потерями
Размер потока : 720 Мбайт (5%)
Язык : Russian
Default : Да
Forced : Нет
Аудио #2
Идентификатор : 3
Формат : AC-3
Формат/Информация : Audio Coding 3
Расширение режима : CM (complete main)
Параметр Endianness формата : Big
Идентификатор кодека : A_AC3
Продолжительность : 2 ч. 10 м.
Вид битрейта : Постоянный
Битрейт : 448 Кбит/сек
Каналы : 6 каналов
Расположение каналов : Front: L C R, Side: L R, LFE
Частота : 48,0 КГц
Битовая глубина : 16 бит
Метод сжатия : С потерями
Размер потока : 420 Мбайт (3%)
Язык : Russian
Default : Нет
Forced : Нет
Аудио #3
Идентификатор : 4
Формат : DTS
Формат/Информация : Digital Theater Systems
Режим : 16
Параметр Endianness формата : Big
Идентификатор кодека : A_DTS
Продолжительность : 2 ч. 10 м.
Вид битрейта : Постоянный
Битрейт : 1509 Кбит/сек
Каналы : 6 каналов
Расположение каналов : Front: L C R, Side: L R, LFE
Частота : 48,0 КГц
Битовая глубина : 24 бит
Метод сжатия : С потерями
Размер потока : 1,38 Гбайт (10%)
Язык : English
Default : Нет
Forced : Нет
Текст #1
Идентификатор : 5
Формат : UTF-8
Идентификатор кодека : S_TEXT/UTF8
Идентификатор кодека/Информация : UTF-8 Plain Text
Язык : Russian
Default : Да
Forced : Да
Текст #2
Идентификатор : 6
Формат : UTF-8
Идентификатор кодека : S_TEXT/UTF8
Идентификатор кодека/Информация : UTF-8 Plain Text
Язык : Russian
Default : Нет
Forced : Нет
Текст #3
Идентификатор : 7
Формат : UTF-8
Идентификатор кодека : S_TEXT/UTF8
Идентификатор кодека/Информация : UTF-8 Plain Text
Заголовок : English
Default : Нет
Forced : Нет
Текст #4
Идентификатор : 8
Формат : UTF-8
Идентификатор кодека : S_TEXT/UTF8
Идентификатор кодека/Информация : UTF-8 Plain Text
Заголовок : Forced
Язык : English
Default : Нет
Forced : Нет
Меню
00:00:00.000 : en:00:00:00.000
00:03:50.230 : en:00:03:50.230
00:07:58.061 : en:00:07:58.061
00:10:27.126 : en:00:10:27.126
00:13:42.405 : en:00:13:42.405
00:17:54.949 : en:00:17:54.949
00:20:17.591 : en:00:20:17.591
00:23:01.380 : en:00:23:01.380
00:24:57.746 : en:00:24:57.746
00:26:58.158 : en:00:26:58.158
00:30:54.811 : en:00:30:54.811
00:34:01.164 : en:00:34:01.164
00:39:21.859 : en:00:39:21.859
00:43:00.870 : en:00:43:00.870
00:45:09.999 : en:00:45:09.999
00:50:59.056 : en:00:50:59.056
00:52:18.761 : en:00:52:18.761
00:54:55.709 : en:00:54:55.709
00:59:04.624 : en:00:59:04.624
01:02:16.232 : en:01:02:16.232
01:05:42.564 : en:01:05:42.564
01:08:20.513 : en:01:08:20.513
01:12:41.983 : en:01:12:41.983
01:18:14.857 : en:01:18:14.857
01:23:50.025 : en:01:23:50.025
01:27:59.399 : en:01:27:59.399
01:30:46.274 : en:01:30:46.274
01:36:25.405 : en:01:36:25.405
01:40:48.584 : en:01:40:48.584
01:43:54.812 : en:01:43:54.812
01:47:24.104 : en:01:47:24.104
01:49:38.405 : en:01:49:38.405
01:54:24.274 : en:01:54:24.274
02:02:10.949 : en:02:02:10.949
02:03:13.386 : en:02:03:13.386
02:05:21.514 : en:02:05:21.514




загрузка...
Правила, инструкции, FAQ!!!
Торрент  Добавлен [28 фев 2014, 11:48] Скачать торрент
Скачать торрент
[ Размер 67.43 КБ / Просмотров 5 ]

Статус  
 
Размер  13.38 ГБ
Приватный: Нет (DHT включён)
.torrent скачан  10
Как залить торрент? | Как скачать Torrent? | Как смотреть и слушать онлайн?  


     Отправить личное сообщение
   
Страница 1 из 1
Показать сообщения за:  Поле сортировки  
Начать новую тему Ответить на тему

   Похожие торренты   Автор   Ответы   Просмотры   Последнее сообщение 
В этой теме нет новых непрочитанных сообщений. Скачать торрент Воровка книг / The Book Thief (2013) BDRip 720p | Лицензия

в форуме 720p | 1080p, Размер: 7.34 ГБ, Здоровье: 0%

Anonymous

0
0|0

54
0

28 фев 2014, 11:43

Anonymous Перейти к последнему сообщению

В этой теме нет новых непрочитанных сообщений. Скачать торрент Воровка книг / The Book Thief (2013) HDRip | Лицензия

в форуме Драмы, Мелодрамы, Размер: 1.46 ГБ, Здоровье: 0%

Anonymous

0
0|0

54
0

28 фев 2014, 07:32

Anonymous Перейти к последнему сообщению

В этой теме нет новых непрочитанных сообщений. Скачать торрент Воровка книг / The Book Thief (2013) DVDScr | Звук с TS

в форуме Военные, Размер: 1.39 ГБ, Здоровье: 0%

Anonymous

0
0|0

82
0

16 янв 2014, 23:32

Anonymous Перейти к последнему сообщению

В этой теме нет новых непрочитанных сообщений. Скачать торрент Проверен [iPad] Воровка книг / The Book Thief (Брайан Персивал / Brian Percival ) [2013, США, Германия, драма, военный, BDRip, SD (576p)] DUB + Original + sub (rus forced, eng forced, rus, eng)

в форуме Фильмы для iPod, iPhone, iPad, Размер: 2.31 ГБ, Здоровье: 100%

Гость

0
41|11

29
0

14 май 2015, 00:26

Гость Перейти к последнему сообщению

В этой теме нет новых непрочитанных сообщений. Скачать торрент Проверен [iPhone] Воровка книг / The Book Thief (Брайан Персивал / Brian Percival) [2013, Драма, военный, DVDScr, 480х200] (Pashaup)

в форуме Фильмы для iPod, iPhone, iPad, Размер: 724.27 МБ, Здоровье: 100%

Anonymous

0
23|8

20
0

11 май 2015, 01:30

Anonymous Перейти к последнему сообщению



Сейчас этот форум просматривают: нет зарегистрированных пользователей и гости: 6


Вы не можете начинать темы
Вы не можете отвечать на сообщения
Вы не можете редактировать свои сообщения
Вы не можете удалять свои сообщения
Вы не можете добавлять вложения

Перейти:  

!ВНИМАНИЕ!
 Ресурс не предоставляет электронные версии произведений, а занимается лишь коллекционированием и каталогизацией ссылок, присылаемых и публикуемых на форуме нашими читателями. Если вы являетесь правообладателем какого-либо представленного материала и не желаете чтобы ссылка на него находилась в нашем каталоге, свяжитесь с нами и мы незамедлительно удалим её. Файлы для обмена на трекере предоставлены пользователями сайта, и администрация не несёт ответственности за их содержание. Просьба не заливать файлы, защищенные авторскими правами, а также файлы нелегального содержания!