На всех торрентах на трекере установлена скидка на скачивание в размере 100 процентов(а).
 Возможность скачивания торрента НЕ зависит от ограничений при низком ратио, низком аплоаде, требуемом ратио или требуемом аплоаде.


Начать новую тему Ответить на тему
Статистика раздачи
Размер: 4.37 ГБ | Добавлен: 27 фев 2014, 08:54 | Скачали: 0
Сидеров: 0  [0 байт/сек]    Личеров: 0  [0 байт/сек]
Пред. тема | След. тема 

Автор
Сообщение

СообщениеДобавлено: 27 фев 2014, 08:54 

Вкратце: К своим 16 годам старшеклассник Донни уже знает, что такое смерть. После несчастного случая, едва не стоившего ему жизни, Донни открывает в себе способности изменять время и судьбу. Перемены, случившиеся с ним, пугают всех, кто его окружает — родителей, сестер, учителей, друзей, любимую девушку.



Название: Донни Дарко
Оригинальное название: Donnie Darko
Год выхода: 2001
Жанр: фантастика, триллер, драма, детектив
Режиссер: Ричард Келли

В ролях: Джейк Джилленхол, Джена Мэлоун, Мэгги Джилленхол, Мэри МакДоннелл, Холмс Осборн, Патрик Суэйзи, Ноа Уайли, Дрю Бэрримор, Джеймс Дювал, Кэтрин Росс




Выпущено: Pandora Cinema
Продолжительность: 02:13:51
Перевод: Многоголосый закадровый (Киномания) + Авторский (А.Гаврилов)


Кодек: x264
Качество: BDRip (источник: Blu-ray Disc)
Видео: 1280x544 (2,35:1), 23.976 fps, 3333 kbps
Аудио #1: AC-3, 6 ch, 448 kbps (Многоголосый закадровый, Киномания)
Аудио #2: AC-3, 6 ch, 448 kbps (Одноголосый закадровый, А.Гаврилов)
Аудио #3: AC-3, 6 ch, 448 kbps (Original)
Субтитры: Русские, Английские
Скачать: сэмпл

Скриншоты

Общее
Уникальный идентификатор : 219088412749285153711920557749755689687 (0xA4D2E4B9AD68406290035C7B5EC7BAD7)
Полное имя : Donnie.Darko.DC.2001.BDRip.720p.Rus.Eng.mkv
Формат : Matroska
Версия формата : Version 2
Размер файла : 4,37 Гбайт
Продолжительность : 2 ч. 13 м.
Общий поток : 4678 Кбит/сек
Название фильма : Донни Дарко / Donnie Darko (2001) | Director's Cut
Дата кодирования : UTC 2014-02-26 19:15:41
Программа кодирования : mkvmerge v5.8.0 ('No Sleep / Pillow') built on Sep 2 2012 15:37:04
Библиотека кодирования : libebml v1.2.3 + libmatroska v1.3.0

Видео
Идентификатор : 1
Формат : AVC
Формат/Информация : Advanced Video Codec
Профиль формата : High@L4.1
Параметр CABAC формата : Да
Параметр ReFrames формата : 11 кадров
Идентификатор кодека : V_MPEG4/ISO/AVC
Продолжительность : 2 ч. 13 м.
Битрейт : 3333 Кбит/сек
Ширина : 1280 пикселей
Высота : 544 пикселя
Соотношение сторон : 2,35:1
Режим частоты кадров : Постоянный
Частота кадров : 23,976 кадра/сек
Цветовое пространство : YUV
Субдискретизация насыщенности : 4:2:0
Битовая глубина : 8 бит
Тип развёртки : Прогрессивная
Бит/(Пиксели*Кадры) : 0.200
Размер потока : 3,03 Гбайт (69%)
Заголовок : Release by AlexKa
Библиотека кодирования : x264 core 142 r2389 956c8d8
Настройки программы : cabac=1 / ref=11 / deblock=1:-3:-3 / analyse=0x3:0x133 / me=umh / subme=11 / psy=1 / psy_rd=1.10:0.10 / mixed_ref=1 / me_range=32 / chroma_me=1 / trellis=2 / 8x8dct=1 / cqm=0 / deadzone=21,11 / fast_pskip=0 / chroma_qp_offset=-3 / threads=12 / lookahead_threads=2 / sliced_threads=0 / nr=0 / decimate=0 / interlaced=0 / bluray_compat=0 / constrained_intra=0 / bframes=7 / b_pyramid=2 / b_adapt=2 / b_bias=0 / direct=3 / weightb=1 / open_gop=0 / weightp=2 / keyint=240 / keyint_min=23 / scenecut=40 / intra_refresh=0 / rc=2pass / mbtree=0 / bitrate=3333 / ratetol=1.0 / qcomp=0.60 / qpmin=0 / qpmax=69 / qpstep=4 / cplxblur=20.0 / qblur=0.5 / ip_ratio=1.40 / pb_ratio=1.30 / aq=1:0.90
Язык : English

Аудио #1
Идентификатор : 2
Формат : AC-3
Формат/Информация : Audio Coding 3
Расширение режима : CM (complete main)
Параметр Endianness формата : Big
Идентификатор кодека : A_AC3
Продолжительность : 2 ч. 13 м.
Вид битрейта : Постоянный
Битрейт : 448 Кбит/сек
Каналы : 6 каналов
Расположение каналов : Front: L C R, Side: L R, LFE
Частота : 48,0 КГц
Битовая глубина : 16 бит
Метод сжатия : С потерями
Размер потока : 429 Мбайт (10%)
Заголовок : Многоголосый закадровый, Киномания
Язык : Russian

Аудио #2
Идентификатор : 3
Формат : AC-3
Формат/Информация : Audio Coding 3
Расширение режима : CM (complete main)
Параметр Endianness формата : Big
Идентификатор кодека : A_AC3
Продолжительность : 2 ч. 13 м.
Вид битрейта : Постоянный
Битрейт : 448 Кбит/сек
Каналы : 6 каналов
Расположение каналов : Front: L C R, Side: L R, LFE
Частота : 48,0 КГц
Битовая глубина : 16 бит
Метод сжатия : С потерями
Размер потока : 429 Мбайт (10%)
Заголовок : Одноголосый закадровый, А.Гаврилов
Язык : Russian

Аудио #3
Идентификатор : 4
Формат : AC-3
Формат/Информация : Audio Coding 3
Расширение режима : CM (complete main)
Параметр Endianness формата : Big
Идентификатор кодека : A_AC3
Продолжительность : 2 ч. 13 м.
Вид битрейта : Постоянный
Битрейт : 448 Кбит/сек
Каналы : 6 каналов
Расположение каналов : Front: L C R, Side: L R, LFE
Частота : 48,0 КГц
Битовая глубина : 16 бит
Метод сжатия : С потерями
Размер потока : 429 Мбайт (10%)
Заголовок : Original
Язык : English

Текст #1
Идентификатор : 5
Формат : UTF-8
Идентификатор кодека : S_TEXT/UTF8
Идентификатор кодека/Информация : UTF-8 Plain Text
Заголовок : Rus
Язык : Russian

Текст #2
Идентификатор : 6
Формат : UTF-8
Идентификатор кодека : S_TEXT/UTF8
Идентификатор кодека/Информация : UTF-8 Plain Text
Заголовок : Eng
Язык : English

Меню
00:00:00.000 : :Chapter 01
00:04:16.214 : :Chapter 02
00:09:10.383 : :Chapter 03
00:12:59.320 : :Chapter 04
00:18:11.882 : :Chapter 05
00:23:17.729 : :Chapter 06
00:27:07.834 : :Chapter 07
00:31:38.980 : :Chapter 08
00:35:08.564 : :Chapter 09
00:41:23.731 : :Chapter 10
00:44:45.224 : :Chapter 11
00:50:31.528 : :Chapter 12
00:56:23.922 : :Chapter 13
00:59:50.420 : :Chapter 14
01:04:48.217 : :Chapter 15
01:10:16.545 : :Chapter 16
01:15:30.734 : :Chapter 17
01:18:55.605 : :Chapter 18
01:23:23.206 : :Chapter 19
01:27:34.874 : :Chapter 20
01:31:36.199 : :Chapter 21
01:37:14.119 : :Chapter 22
01:39:39.765 : :Chapter 23
01:44:33.892 : :Chapter 24
01:48:51.608 : :Chapter 25
01:53:07.113 : :Chapter 26
01:58:47.036 : :Chapter 27
02:02:59.830 : :Chapter 28
02:13:50.814 : :Chapter 29
загрузка...
Правила, инструкции, FAQ!!!
Торрент  Добавлен [27 фев 2014, 08:54] Скачать торрент
Скачать торрент
[ Размер 11.6 КБ / Просмотров 14 ]

Статус  
 
Размер  4.37 ГБ
Приватный: Нет (DHT включён)
.torrent скачан  0
Как залить торрент? | Как скачать Torrent? | Как смотреть и слушать онлайн?  


     Отправить личное сообщение
   
Страница 1 из 1
Показать сообщения за:  Поле сортировки  
Начать новую тему Ответить на тему

   Похожие торренты   Автор   Ответы   Просмотры   Последнее сообщение 
В этой теме нет новых непрочитанных сообщений. Скачать торрент Донни Дарко / Donnie Darko (Ричард Келли / Richard Kelly) [2001 г., Триллер, драма, мистика, BDRip-AVC] [Театральная Версия]

в форуме Фантастика, Фэнтези, Размер: 2.05 ГБ, Здоровье: 100%

Anonymous

0
54|18

52
1

22 апр 2014, 11:39

Anonymous Перейти к последнему сообщению

В этой теме нет новых непрочитанных сообщений. Скачать торрент Донни Дарко / Donnie Darko (Ричард Келли / Richard Kelly) [2001 г., драма, мистика, фантастика, триллер, HDRip] (Режиссерская версия / Directors cut) MVO (Киномания)

в форуме Фантастика, Фэнтези, Размер: 1.46 ГБ, Здоровье: 100%

Anonymous

0
43|11

59
1

03 фев 2014, 12:33

Anonymous Перейти к последнему сообщению

В этой теме нет новых непрочитанных сообщений. Скачать торрент Столкновение / Crash (2004) BDRip 720p | Director's Cut

в форуме 720p | 1080p, Размер: 5.93 ГБ, Здоровье: 0%

Anonymous

0
0|0

27
1

25 дек 2013, 14:07

Anonymous Перейти к последнему сообщению

В этой теме нет новых непрочитанных сообщений. Скачать торрент Пила 4 / Saw IV (2007) BDRip 720p | Unrated Director's Cut

в форуме 720p | 1080p, Размер: 7.87 ГБ, Здоровье: 0%

Anonymous

0
0|0

23
0

18 фев 2014, 21:32

Anonymous Перейти к последнему сообщению

В этой теме нет новых непрочитанных сообщений. Скачать торрент Проверен Азартные игры / Reindeer Games (2000) BDRip 720p | Director's Cut | A

в форуме 720p | 1080p, Размер: 6.48 ГБ, Здоровье: 100%

Гость

0
57|12

30
56

05 сен 2016, 00:08

Гость Перейти к последнему сообщению



Сейчас этот форум просматривают: нет зарегистрированных пользователей и гости: 2


Вы не можете начинать темы
Вы не можете отвечать на сообщения
Вы не можете редактировать свои сообщения
Вы не можете удалять свои сообщения
Вы не можете добавлять вложения

Перейти:  

!ВНИМАНИЕ!
 Ресурс не предоставляет электронные версии произведений, а занимается лишь коллекционированием и каталогизацией ссылок, присылаемых и публикуемых на форуме нашими читателями. Если вы являетесь правообладателем какого-либо представленного материала и не желаете чтобы ссылка на него находилась в нашем каталоге, свяжитесь с нами и мы незамедлительно удалим её. Файлы для обмена на трекере предоставлены пользователями сайта, и администрация не несёт ответственности за их содержание. Просьба не заливать файлы, защищенные авторскими правами, а также файлы нелегального содержания!