На всех торрентах на трекере установлена скидка на скачивание в размере 100 процентов(а).
 Возможность скачивания торрента НЕ зависит от ограничений при низком ратио, низком аплоаде, требуемом ратио или требуемом аплоаде.


Начать новую тему Ответить на тему
Статистика раздачи
Размер: 5.76 ГБ | Добавлен: 23 окт 2012, 15:44 | Скачали: 0
Сидеров: 0  [0 байт/сек]    Личеров: 0  [0 байт/сек]
Пред. тема | След. тема 

Автор
Сообщение

СообщениеДобавлено: 23 окт 2012, 15:44 

Информация о фильме:
Название: Некуда бежать
Оригинальное название: Nowhere to Run
Год выхода: 1993
Жанр: боевик, драма, мелодрама
Режиссер: Роберт Хармон
В ролях: Жан-Клод Ван Дамм, Розанна Аркетт, Киран Калкин, Тед Левайн, Тиффани Тоубмэн, Эдвард Блэтчфорд, Стефен Бриджуотер, Кристи Боткин, Луана Андерс, Джон Рубиноу

О фильме:
Сэм, беглый заключенный находит кров на уединенной ферме, где живет молодая женщина с двумя детьми. С трудом сбежав от полиции, он уже на пути к свободе, но безопасность тех, кто помог ему в трудную минуту, заставляет его вернуться.
Беспомощной женщине и двум ее детям угрожает опасность — подкупленный судья и бандиты хотят отобрать у них дом — и Сэм встает на защиту семьи.
В трудной схватке он один противостоит нескольким головорезам, но только так он может заслужить любовь и доверие тех, кто стал для него самым дорогими людьми на свете.



Выпущено: США
Продолжительность: 01:34:19
Перевод: Дублированный + Профессиональный (многоголосый, закадровый) + Оригинал

Файл
Кодек: x264
Качество: BDRip 1080p
Видео: 1920x1040, 7984 Kbps, 23.976 fps
Аудио #1: AC-3, 6 ch, 384 kbps (Rus)
Аудио #2: AC-3, 2 ch, 192 kbps (Rus)
Аудио #3: AC-3, 2 ch, 192 kbps (Eng)
Cубтитры: русские, английские

Общее
Уникальный идентификатор : 215557464017589117381260717561842018908 (0xA22ADB8312AE96879D057C997040AA5C)
Полное имя : T:Кино2 Фильмы на DVD94 х Blu-rayНекуда бежать.1993.BDRip.1080p.Rus.Eng.mkv
Формат : Matroska
Версия формата : Version 4 / Version 2
Размер файла : 5,76 Гбайт
Продолжительность : 1 ч. 34 м.
Общий поток : 8745 Кбит/сек
Название фильма : Некуда бежать.1993
Дата кодирования : UTC 2010-02-22 21:41:31
Программа кодирования : mkvmerge v5.8.0 ('No Sleep / Pillow') built on Sep 30 2012 10:57:14
Библиотека кодирования : libebml v1.3.0 + libmatroska v1.4.0

Видео
Идентификатор : 1
Формат : AVC
Формат/Информация : Advanced Video Codec
Профиль формата : High@L4.1
Параметр CABAC формата : Да
Параметр ReFrames формата : 4 кадра
Идентификатор кодека : V_MPEG4/ISO/AVC
Продолжительность : 1 ч. 34 м.
Битрейт : 7984 Кбит/сек
Ширина : 1920 пикселей
Высота : 1040 пикселей
Соотношение сторон : 1,85:1
Режим частоты кадров : Постоянный
Частота кадров : 23,976 кадра/сек
Цветовое пространство : YUV
Субдискретизация насыщенности : 4:2:0
Битовая глубина : 8 бит
Тип развёртки : Прогрессивная
Бит/(Пиксели*Кадры) : 0.167
Размер потока : 5,14 Гбайт (89%)
Заголовок : Rip by Boriy
Библиотека кодирования : x264 core 128 r2216 198a7ea
Настройки программы : cabac=1 / ref=4 / deblock=1:-2:-2 / analyse=0x3:0x113 / me=umh / subme=10 / psy=1 / psy_rd=1.00:0.10 / mixed_ref=1 / me_range=32 / chroma_me=1 / trellis=2 / 8x8dct=1 / cqm=0 / deadzone=21,11 / fast_pskip=0 / chroma_qp_offset=-3 / threads=12 / lookahead_threads=2 / sliced_threads=0 / nr=0 / decimate=0 / interlaced=0 / bluray_compat=0 / constrained_intra=0 / bframes=5 / b_pyramid=2 / b_adapt=2 / b_bias=0 / direct=3 / weightb=1 / open_gop=0 / weightp=2 / keyint=240 / keyint_min=23 / scenecut=40 / intra_refresh=0 / rc=2pass / mbtree=0 / bitrate=7984 / ratetol=1.0 / qcomp=0.60 / qpmin=0 / qpmax=69 / qpstep=4 / cplxblur=20.0 / qblur=0.5 / ip_ratio=1.40 / pb_ratio=1.30 / aq=1:0.90
Язык : English
Default : Да
Forced : Нет

Аудио #1
Идентификатор : 2
Формат : AC-3
Формат/Информация : Audio Coding 3
Расширение режима : CM (complete main)
Параметр Endianness формата : Big
Идентификатор кодека : A_AC3
Продолжительность : 1 ч. 34 м.
Вид битрейта : Постоянный
Битрейт : 384 Кбит/сек
Каналы : 6 каналов
Расположение каналов : Front: L C R, Side: L R, LFE
Частота : 48,0 КГц
Битовая глубина : 16 бит
Метод сжатия : С потерями
Размер потока : 259 Мбайт (4%)
Заголовок : Дубляж
Язык : Russian
Default : Да
Forced : Нет

Аудио #2
Идентификатор : 3
Формат : AC-3
Формат/Информация : Audio Coding 3
Расширение режима : CM (complete main)
Параметр Endianness формата : Big
Идентификатор кодека : A_AC3
Продолжительность : 1 ч. 34 м.
Вид битрейта : Постоянный
Битрейт : 192 Кбит/сек
Каналы : 2 канала
Расположение каналов : Front: L R
Частота : 48,0 КГц
Битовая глубина : 16 бит
Метод сжатия : С потерями
Размер потока : 130 Мбайт (2%)
Заголовок : Профессиональный (многоголосый, закадровый)
Язык : Russian
Default : Нет
Forced : Нет

Аудио #3
Идентификатор : 4
Формат : AC-3
Формат/Информация : Audio Coding 3
Расширение режима : CM (complete main)
Параметр Endianness формата : Big
Идентификатор кодека : A_AC3
Продолжительность : 1 ч. 34 м.
Вид битрейта : Постоянный
Битрейт : 192 Кбит/сек
Каналы : 2 канала
Расположение каналов : Front: L R
Частота : 48,0 КГц
Битовая глубина : 16 бит
Метод сжатия : С потерями
Размер потока : 130 Мбайт (2%)
Заголовок : Оригинал
Язык : English
Default : Нет
Forced : Нет

Текст #1
Идентификатор : 5
Формат : UTF-8
Идентификатор кодека : S_TEXT/UTF8
Идентификатор кодека/Информация : UTF-8 Plain Text
Язык : Russian
Default : Нет
Forced : Нет

Текст #2
Идентификатор : 6
Формат : UTF-8
Идентификатор кодека : S_TEXT/UTF8
Идентификатор кодека/Информация : UTF-8 Plain Text
Язык : English
Default : Нет
Forced : Нет

Меню
00:00:00.000 : :Chapter 01
00:06:16.539 : :Chapter 02
00:11:23.138 : :Chapter 03
00:20:33.855 : :Chapter 04
00:26:13.527 : :Chapter 05
00:31:30.886 : :Chapter 06
00:38:51.661 : :Chapter 07
00:46:41.172 : :Chapter 08
00:48:45.922 : :Chapter 09
00:54:19.338 : :Chapter 10
01:00:10.148 : :Chapter 11
01:06:52.046 : :Chapter 12
01:12:14.997 : :Chapter 13
01:19:34.185 : :Chapter 14
01:24:00.452 : :Chapter 15
01:27:21.734 : :Chapter 16
01:34:19.403 : :
загрузка...
Правила, инструкции, FAQ!!!
Торрент  Добавлен [23 окт 2012, 15:44] Скачать торрент
Скачать торрент
[ Размер 29.24 КБ / Просмотров 29 ]

Статус
Проверен 
 
Размер  5.76 ГБ
Приватный: Нет (DHT включён)
.torrent скачан  0
Как залить торрент? | Как скачать Torrent? | Как смотреть и слушать онлайн?  


     Отправить личное сообщение
   
Страница 1 из 1
Показать сообщения за:  Поле сортировки  
Начать новую тему Ответить на тему

   Похожие торренты   Автор   Ответы   Просмотры   Последнее сообщение 
В этой теме нет новых непрочитанных сообщений. Скачать торрент Проверен (Шансон) Юрий Белков - Некуда бежать - 1995, MP3, 320 kbps

в форуме Шансон|Авторская песня, Размер: 115.84 МБ, Здоровье: 0%

Anonymous

0
0|0

0
0

05 ноя 2016, 18:00

Anonymous Перейти к последнему сообщению

В этой теме нет новых непрочитанных сообщений. Скачать торрент Разрушитель / Demolition Man (1993) BDRip 1080p

в форуме 720p | 1080p, Размер: 7.76 ГБ, Здоровье: 100%

Anonymous

0
19|2

40
7

13 янв 2014, 20:05

Anonymous Перейти к последнему сообщению

В этой теме нет новых непрочитанных сообщений. Скачать торрент Фирма / The Firm (1993) BDRip [1080p]

в форуме 720p | 1080p, Размер: 15.77 ГБ, Здоровье: 100%

Anonymous

0
8|1

34
0

20 апр 2014, 22:00

Anonymous Перейти к последнему сообщению

В этой теме нет новых непрочитанных сообщений. Скачать торрент Проверен День сурка / Groundhog Day (1993) BDRip 1080p

в форуме 720p | 1080p, Размер: 5.77 ГБ, Здоровье: 100%

Гость

0
124|7

48
11

21 май 2015, 10:26

Гость Перейти к последнему сообщению

В этой теме нет новых непрочитанных сообщений. Скачать торрент Проверен Путь Карлито / Carlito's Way (1993) BDRip 1080p

в форуме 720p | 1080p, Размер: 11.55 ГБ, Здоровье: 100%

Гость

0
36|16

135
20

14 апр 2015, 22:18

Гость Перейти к последнему сообщению



Сейчас этот форум просматривают: нет зарегистрированных пользователей и гости: 4


Вы не можете начинать темы
Вы не можете отвечать на сообщения
Вы не можете редактировать свои сообщения
Вы не можете удалять свои сообщения
Вы не можете добавлять вложения

Перейти:  

!ВНИМАНИЕ!
 Ресурс не предоставляет электронные версии произведений, а занимается лишь коллекционированием и каталогизацией ссылок, присылаемых и публикуемых на форуме нашими читателями. Если вы являетесь правообладателем какого-либо представленного материала и не желаете чтобы ссылка на него находилась в нашем каталоге, свяжитесь с нами и мы незамедлительно удалим её. Файлы для обмена на трекере предоставлены пользователями сайта, и администрация не несёт ответственности за их содержание. Просьба не заливать файлы, защищенные авторскими правами, а также файлы нелегального содержания!