На всех торрентах на трекере установлена скидка на скачивание в размере 100 процентов(а).
 Возможность скачивания торрента НЕ зависит от ограничений при низком ратио, низком аплоаде, требуемом ратио или требуемом аплоаде.


Начать новую тему Ответить на тему
Статистика раздачи
Размер: 7.09 ГБ | Добавлен: 26 фев 2014, 14:24 | Скачали: 0
Сидеров: 0  [0 байт/сек]    Личеров: 0  [0 байт/сек]
Пред. тема | След. тема 

Автор
Сообщение

СообщениеДобавлено: 26 фев 2014, 14:24 

Вкратце: Роланд Флинт и Винсент Брэйзил — отъявленные наёмники, мастера восточных единоборств и гуру военного искусства. Винсент специализируется на холодном оружии, в то время, как Роланд является первоклассным стрелком. Они не знакомы друг другу, но вскоре им предстоит создать непростой альянс и колоритный тандем. В один прекрасный день двум профессионалам поручили задание — любой ценой уничтожить наркокартель, заполонившую всю округу «товаром», а вместе с тем — убрать её всесильного босса, покрываемого управлением по борьбе с наркотиками. Однако, за простой, с первого взгляда, миссией кроется предательство, подстава и тёмные проделки влиятельных лиц и воротил преступного мира, объявивших охоту на самих наёмников. Теперь крутым ребятам придётся на собственной шкуре ощутить, что значит быть жертвой и постоянно оглядываться назад. Война начинается и кровопролитной битвы не избежать…

Название: Игры киллеров
Оригинальное название: Assassination Games
Год выпуска: 2011
Жанр: Боевик, триллер
Режиссер: Эрни Барбараш

В ролях: Жан-Клод Ван Дамм, Скотт Эдкинс, Айван Кэй, Валентин Теодосию, Элин Пэнк, Кевин Чэпмен, Сербан Целеа, Майкл Хиггс, Кристофер Ван Варенберг, Мария Каран, Бьянка Бри, Эндрю Френч, Аттила Арпа, Мариоара Стериан, Джордж Ремис, Юлия Люмэнаре, Флорин Басуйок, Сорин Кристи, Йоана Павелеску, Анхель Кристиан, Салахадин Х. Безтаут, Релю Поалеланги, Мария-Антуанетта Тудор, Лоредана Гроуза, Клаудиу Трандафир, Бой Превос




Страна: США, Румыния
Студия: Mediapro Studios, Motion Picture Corporation of America (MPCA), Rodin Entertainment
Продолжительность: 01:39:52
Перевод: Дублированный (лицензия)


Качество: BDRip 1080p
Видео: MPEG-4 AVC, 8200 Кбит/с, 1920x1080, 23.976 кадр/с
Аудио #1: Русский (AC3, 6 ch, 448 Кбит/с) / Дублированный
Аудио #2: Английский (DTS, 6 ch, 1509 Кбит/с)
Субтитры: Русские, английские

Семпл



За исходный блюр спасибо: CHDBits
Общее
Уникальный идентификатор : 203595923022660857646059806856248506143 (0x992B260228CFAD92A10F1E2545CB371F)
Полное имя : D:Mои раздачиIgry.killerov.2011.BDRip.1080p-MediaClub.mkv
Формат : Matroska
Версия формата : Version 4 / Version 2
Размер файла : 7,09 Гбайт
Продолжительность : 1 ч. 39 м.
Общий поток : 10,2 Мбит/сек
Дата кодирования : UTC 2014-02-26 07:39:07
Программа кодирования : mkvmerge v6.1.0 ('Old Devil') built on Mar 4 2013 09:10:42
Библиотека кодирования : libebml v1.3.0 + libmatroska v1.4.0

Видео
Идентификатор : 1
Формат : AVC
Формат/Информация : Advanced Video Codec
Профиль формата : High@L4.1
Параметр CABAC формата : Да
Параметр ReFrames формата : 4 кадра
Идентификатор кодека : V_MPEG4/ISO/AVC
Продолжительность : 1 ч. 39 м.
Битрейт : 8200 Кбит/сек
Ширина : 1920 пикселей
Высота : 1080 пикселей
Соотношение сторон : 16:9
Режим частоты кадров : Постоянный
Частота кадров : 23,976 кадра/сек
Цветовое пространство : YUV
Субдискретизация насыщенности : 4:2:0
Битовая глубина : 8 бит
Тип развёртки : Прогрессивная
Бит/(Пиксели*Кадры) : 0.165
Размер потока : 5,58 Гбайт (79%)
Заголовок : -=MediaClub-kaspr=-
Библиотека кодирования : x264 core 140 r2377+40 929f149 tMod [8-bit@4:2:0 X86_64]
Настройки программы : cabac=1 / ref=4 / deblock=1:-3:-3 / analyse=0x3:0x133 / me=umh / subme=11 / psy=1 / fade_compensate=0.00 / psy_rd=1.00:0.20 / mixed_ref=1 / me_range=32 / chroma_me=1 / trellis=2 / 8x8dct=1 / cqm=0 / deadzone=21,11 / fast_pskip=0 / chroma_qp_offset=-3 / threads=12 / lookahead_threads=3 / sliced_threads=0 / nr=0 / decimate=0 / interlaced=0 / bluray_compat=0 / constrained_intra=0 / fgo=0 / bframes=10 / b_pyramid=2 / b_adapt=2 / b_bias=0 / direct=3 / weightb=1 / open_gop=0 / weightp=2 / keyint=240 / keyint_min=23 / scenecut=40 / intra_refresh=0 / rc=2pass / mbtree=0 / bitrate=8200 / ratetol=1.0 / qcomp=0.60 / qpmin=0:0:0 / qpmax=69:69:69 / qpstep=4 / cplxblur=20.0 / qblur=0.5 / ip_ratio=1.40 / pb_ratio=1.30 / aq=2:0.80 / aq-sensitivity=10.00 / aq-factor=1.00:1.00:1.00 / aq2=0 / aq3=0
Default : Да
Forced : Да

Аудио #1
Идентификатор : 2
Формат : AC-3
Формат/Информация : Audio Coding 3
Расширение режима : CM (complete main)
Параметр Endianness формата : Big
Идентификатор кодека : A_AC3
Продолжительность : 1 ч. 39 м.
Вид битрейта : Постоянный
Битрейт : 448 Кбит/сек
Каналы : 6 каналов
Расположение каналов : Front: L C R, Side: L R, LFE
Частота : 48,0 КГц
Битовая глубина : 16 бит
Метод сжатия : С потерями
Размер потока : 320 Мбайт (4%)
Заголовок : Дубляж
Язык : Russian
Default : Да
Forced : Да

Аудио #2
Идентификатор : 3
Формат : DTS
Формат/Информация : Digital Theater Systems
Режим : 16
Параметр Endianness формата : Big
Идентификатор кодека : A_DTS
Продолжительность : 1 ч. 39 м.
Вид битрейта : Постоянный
Битрейт : 1509 Кбит/сек
Каналы : 6 каналов
Расположение каналов : Front: L C R, Side: L R, LFE
Частота : 48,0 КГц
Битовая глубина : 24 бит
Метод сжатия : С потерями
Размер потока : 1,05 Гбайт (15%)
Язык : English
Default : Нет
Forced : Нет

Текст #1
Идентификатор : 4
Формат : UTF-8
Идентификатор кодека : S_TEXT/UTF8
Идентификатор кодека/Информация : UTF-8 Plain Text
Язык : Russian
Default : Нет
Forced : Нет

Текст #2
Идентификатор : 5
Формат : UTF-8
Идентификатор кодека : S_TEXT/UTF8
Идентификатор кодека/Информация : UTF-8 Plain Text
Язык : English
Default : Нет
Forced : Нет

Меню
00:00:00.000 : en:Chapter 01
00:07:57.977 : en:Chapter 02
00:11:13.713 : en:Chapter 03
00:17:42.519 : en:Chapter 04
00:21:57.648 : en:Chapter 05
00:30:29.953 : en:Chapter 06
00:37:04.597 : en:Chapter 07
00:41:24.732 : en:Chapter 08
00:46:33.457 : en:Chapter 09
00:51:43.850 : en:Chapter 10
00:58:31.591 : en:Chapter 11
01:07:04.770 : en:Chapter 12
01:11:32.537 : en:Chapter 13
01:17:46.119 : en:Chapter 14
01:23:49.607 : en:Chapter 15
01:32:09.106 : en:Chapter 16


Релиз: |
загрузка...
Правила, инструкции, FAQ!!!
Торрент  Добавлен [26 фев 2014, 14:24] Скачать торрент
Скачать торрент
[ Размер 18.46 КБ / Просмотров 8 ]

Статус  
 
Размер  7.09 ГБ
Приватный: Нет (DHT включён)
.torrent скачан  0
Как залить торрент? | Как скачать Torrent? | Как смотреть и слушать онлайн?  


     Отправить личное сообщение
   
Страница 1 из 1
Показать сообщения за:  Поле сортировки  
Начать новую тему Ответить на тему

   Похожие торренты   Автор   Ответы   Просмотры   Последнее сообщение 
В этой теме нет новых непрочитанных сообщений. Скачать торрент Игры киллеров / Assassination Games (2011) HDTVRip | Лицензия

в форуме Боевики, Размер: 1.46 ГБ, Здоровье: 100%

Anonymous

0
15|1

39
295

26 фев 2014, 14:22

Anonymous Перейти к последнему сообщению

В этой теме нет новых непрочитанных сообщений. Скачать торрент Проверен Голодные игры: Сойка-пересмешница. Часть II / The Hunger Games: Mockingjay - Part 2 (2015) BDRip 1080p | iTunes

в форуме 720p | 1080p, Размер: 11 ГБ, Здоровье: 100%

Anonymous

0
458|55

105
639

22 мар 2016, 21:47

Anonymous Перейти к последнему сообщению

В этой теме нет новых непрочитанных сообщений. Скачать торрент Проверен Азартные игры / Reindeer Games (2000) BDRip 720p | Director's Cut | A

в форуме 720p | 1080p, Размер: 6.48 ГБ, Здоровье: 100%

Гость

0
57|12

31
56

05 сен 2016, 00:08

Гость Перейти к последнему сообщению

В этой теме нет новых непрочитанных сообщений. Скачать торрент RIO Mini Games / РИО Мини Игры [L] [Multi21/Rus] (2011)

в форуме Детские, Размер: 16.36 МБ, Здоровье: 100%

Anonymous

0
5|2

30
0

20 апр 2014, 10:11

Anonymous Перейти к последнему сообщению

В этой теме нет новых непрочитанных сообщений. Скачать торрент Проверен Голодные игры. Дилогия / The Hunger Games. Dilogy (2012-2013) BDRip 720p

в форуме Дилогии, Размер: 22 ГБ, Здоровье: 6%

Anonymous

0
4|58

300
3

11 дек 2014, 21:53

Anonymous Перейти к последнему сообщению



Сейчас этот форум просматривают: нет зарегистрированных пользователей и гости: 3


Вы не можете начинать темы
Вы не можете отвечать на сообщения
Вы не можете редактировать свои сообщения
Вы не можете удалять свои сообщения
Вы не можете добавлять вложения

Перейти:  

!ВНИМАНИЕ!
 Ресурс не предоставляет электронные версии произведений, а занимается лишь коллекционированием и каталогизацией ссылок, присылаемых и публикуемых на форуме нашими читателями. Если вы являетесь правообладателем какого-либо представленного материала и не желаете чтобы ссылка на него находилась в нашем каталоге, свяжитесь с нами и мы незамедлительно удалим её. Файлы для обмена на трекере предоставлены пользователями сайта, и администрация не несёт ответственности за их содержание. Просьба не заливать файлы, защищенные авторскими правами, а также файлы нелегального содержания!