На всех торрентах на трекере установлена скидка на скачивание в размере 100 процентов(а).
 Возможность скачивания торрента НЕ зависит от ограничений при низком ратио, низком аплоаде, требуемом ратио или требуемом аплоаде.


Начать новую тему Ответить на тему
Статистика раздачи
Размер: 9.63 ГБ | Добавлен: 25 фев 2014, 22:42 | Скачали: 0
Сидеров: 12  [0 байт/сек]    Личеров: 4  [0 байт/сек]
Пред. тема | След. тема 

Автор
Сообщение

СообщениеДобавлено: 25 фев 2014, 22:42 

Во имя отца / In the Name of the Father

Страна: Ирландия, Великобритания
Жанр: драма, биография
Год выпуска: 1993
Продолжительность: 02:12:52

Перевод: Профессиональный (многоголосый закадровый)
Перевод: Авторский (одноголосый закадровый) Гаврилов
Cубтитры: русские (без цензуры), английские
Оригинальная аудиодорожка: английский
Режиссер: Джим Шеридан / Jim Sheridan
В ролях: Дэниэл Дэй-Льюис, Пит Постлетуэйт, Эмма Томпсон, Джон Линч, Марк Шеппард, Бети Эдни, Фрэнк Харпер, Бритта Смит, Корин Редгрейв, Джерард МакСорли

Описание: Эта драма основана на реальных событиях — истории «Гилфордской четверки». В 1975 году молодой ирландец Джерри Конлон был приговорен английским правосудием к пожизненному заключению за покушение, которое он не совершал. Трое его друзей, его отец, тетя, племянница и племянник также осуждены за соучастие. Адвокат Гэрит Перси пытается добиться пересмотра дела.

IMDb || КиноПоиск
Тип релиза: BDRip 720p [ThD]
Контейнер: MKV
Видео: H.264/AVC, 1280x694 at 23.976 fps, ~8093 kbps
Аудио#1: Russian: 48 kHz, AC3, 2/0 (L,R) ch, 384.00 kbps |Многоголосый закадровый|
Аудио#2: Russian: 48 kHz, AC3, 2/0 (L,R) ch, 192.00 kbps |Авторский одноголосый закадровый, Гаврилов|
Аудио#3: English: 48 kHz, DTS, 3/2 (L,C,R,l,r) + LFE ch, 1510.00 kbps
Формат субтитров: softsub (SRT)

Сэмпл
MediaInfo
x264
frame I:1508 Avg QP:15.88 size:103472
frame P:34170 Avg QP:16.90 size: 63547
frame B:155453 Avg QP:18.28 size: 38140
consecutive B-frames: 1.5% 1.2% 3.3% 12.8% 12.0% 31.4% 10.8% 16.2% 4.4% 4.3% 2.3%
encoded 191131 frames, 8.21 fps, 8285.75 kb/s
Format : Matroska
Format version : Version 2
File size : 9.63 GiB
Duration : 2h 12mn
Overall bit rate : 10.4 Mbps
Encoded date : UTC 2013-04-16 20:26:52
Writing application : mkvmerge v5.0.1 ('Es ist Sommer') built on Nov 6 2011 16:23:40
Writing library : libebml v1.2.2 + libmatroska v1.3.0

Video
ID : 1
Format : AVC
Format/Info : Advanced Video Codec
Format profile : High@L4.1
Format settings, CABAC : Yes
Format settings, ReFrames : 9 frames
Codec ID : V_MPEG4/ISO/AVC
Duration : 2h 12mn
Bit rate : 8 082 Kbps
Width : 1 280 pixels
Height : 694 pixels
Display aspect ratio : 16:9
Frame rate : 23.976 fps
Color space : YUV
Chroma subsampling : 4:2:0
Bit depth : 8 bits
Scan type : Progressive
Bits/(Pixel*Frame) : 0.379
Stream size : 7.50 GiB (78%)
Writing library : x264 core 128 r2216kMod 198a7ea
Encoding settings : cabac=1 / ref=9 / deblock=1:-3:-3 / analyse=0x3:0x133 / me=umh / subme=9 / psy=1 / fade_compensate=0.00 / psy_rd=1.10:0.00 / mixed_ref=1 / me_range=64 / chroma_me=1 / trellis=2 / 8x8dct=1 / cqm=0 / deadzone=21,11 / fast_pskip=0 / chroma_qp_offset=-2 / threads=12 / lookahead_threads=2 / sliced_threads=0 / nr=0 / decimate=0 / interlaced=0 / bluray_compat=0 / constrained_intra=0 / bframes=10 / b_pyramid=2 / b_adapt=2 / b_bias=0 / direct=3 / weightb=1 / open_gop=0 / weightp=2 / keyint=250 / keyint_min=23 / scenecut=40 / intra_refresh=0 / rc=crf / mbtree=0 / crf=18.5000 / qcomp=0.85 / qpmin=0 / qpmax=69 / qpstep=4 / ip_ratio=1.30 / pb_ratio=1.20 / aq=2:0.90
Language : English
Default : Yes
Forced : No

Audio #1
ID : 2
Format : AC-3
Format/Info : Audio Coding 3
Mode extension : CM (complete main)
Codec ID : A_AC3
Duration : 2h 12mn
Bit rate mode : Constant
Bit rate : 384 Kbps
Channel(s) : 2 channels
Channel positions : Front: L R
Sampling rate : 48.0 KHz
Bit depth : 16 bits
Compression mode : Lossy
Stream size : 365 MiB (4%)
Title : MVO
Language : Russian
Default : Yes
Forced : No

Audio #2
ID : 3
Format : AC-3
Format/Info : Audio Coding 3
Mode extension : CM (complete main)
Codec ID : A_AC3
Duration : 2h 12mn
Bit rate mode : Constant
Bit rate : 192 Kbps
Channel(s) : 2 channels
Channel positions : Front: L R
Sampling rate : 48.0 KHz
Bit depth : 16 bits
Compression mode : Lossy
Stream size : 182 MiB (2%)
Title : AVO
Language : Russian
Default : No
Forced : No

Audio #3
ID : 4
Format : DTS
Format/Info : Digital Theater Systems
Codec ID : A_DTS
Duration : 2h 12mn
Bit rate mode : Constant
Bit rate : 1 510 Kbps
Channel(s) : 6 channels
Channel positions : Front: L C R, Side: L R, LFE
Sampling rate : 48.0 KHz
Bit depth : 24 bits
Compression mode : Lossy
Stream size : 1.40 GiB (15%)
Language : English
Default : No
Forced : No

Text #1
ID : 5
Format : UTF-8
Codec ID : S_TEXT/UTF8
Codec ID/Info : UTF-8 Plain Text
Language : Russian
Default : No
Forced : No

Text #2
ID : 6
Format : UTF-8
Codec ID : S_TEXT/UTF8
Codec ID/Info : UTF-8 Plain Text
Language : English
Default : No
Forced : No

Menu
00:00:00.000 : en:Main Titles
00:05:59.440 : en:Riot!
00:09:54.160 : en:Going to London
00:22:33.560 : en:Charlie Burke's Bench
00:29:34.320 : en:The Inquistion
00:39:10.120 : en:The Confession
00:42:27.320 : en:Cellmates
00:51:01.400 : en:The Trial
01:03:47.120 : en:The Verdict
01:16:34.200 : en:The Real Thing
01:32:49.960 : en:The Burning of Barker
01:45:25.520 : en:Wake Up, Da!
01:50:06.000 : en:The Parade of Innocence
01:56:33.640 : en:The File on Gerry Conlon
02:05:06.160 : en:"I'm a Free Man..."
02:07:14.320 : en:End Titles
Скриншоты
ThD vs
Source vs HDTV
ThD vs
Source
загрузка...
Правила, инструкции, FAQ!!!
Торрент  Добавлен [25 фев 2014, 22:42] Скачать торрент
Скачать торрент
[ Размер 48.64 КБ / Просмотров 15 ]

Статус  
 
Размер  9.63 ГБ
Приватный: Нет (DHT включён)
.torrent скачан  0
Как залить торрент? | Как скачать Torrent? | Как смотреть и слушать онлайн?  


     Отправить личное сообщение
   
Страница 1 из 1
Показать сообщения за:  Поле сортировки  
Начать новую тему Ответить на тему

   Похожие торренты   Автор   Ответы   Просмотры   Последнее сообщение 
В этой теме нет новых непрочитанных сообщений. Скачать торрент Когда ты в последний раз видел своего отца? / And When Did You Last See Your Father? (Ананд Такер / Anand Tucker) [2007, Великобритания, Ирландия, Драма, биография, HDRip-AVC] MVO + original eng + Sub (rus,eng)

в форуме Драмы, Мелодрамы, Размер: 2.18 ГБ, Здоровье: 100%

Anonymous

0
10|3

95
0

01 апр 2014, 09:35

Anonymous Перейти к последнему сообщению

В этой теме нет новых непрочитанных сообщений. Скачать торрент Разбогатей или сдохни / Get Rich or Die Tryin' (Джим Шеридан / Jim Sheridan) [2005, США, драма, криминал, биография, музыка, HDTVRip-AVC]

в форуме Драмы, Мелодрамы, Размер: 1.58 ГБ, Здоровье: 100%

Anonymous

0
12|4

85
2

29 апр 2014, 13:53

Anonymous Перейти к последнему сообщению

В этой теме нет новых непрочитанных сообщений. Скачать торрент Братья / Brothers (Джим Шеридан / Jim Sheridan) [2009 г., триллер, драма, военный, HDRip]

в форуме Триллеры, Размер: 746.03 МБ, Здоровье: 100%

Anonymous

0
12|4

54
0

03 апр 2014, 12:42

Anonymous Перейти к последнему сообщению

В этой теме нет новых непрочитанных сообщений. Скачать торрент Голод / Hunger (Стив МакКуин / Steve McQueen) [2008, Великобритания, Ирландия, драма, биография, история, BDRip]

в форуме Драмы, Мелодрамы, Размер: 2.12 ГБ, Здоровье: 100%

Anonymous

0
23|8

124
0

17 фев 2014, 11:47

Anonymous Перейти к последнему сообщению

В этой теме нет новых непрочитанных сообщений. Скачать торрент Голод / Hunger (Стив МакКуин / Steve McQueen) [2008, Великобритания, Ирландия, драма, биография, история, BDRip] AVO (Юрий Сербин)

в форуме Драмы, Мелодрамы, Размер: 1.43 ГБ, Здоровье: 0%

Anonymous

0
0|0

132
0

06 фев 2014, 11:42

Anonymous Перейти к последнему сообщению



Сейчас этот форум просматривают: нет зарегистрированных пользователей и гости: 4


Вы не можете начинать темы
Вы не можете отвечать на сообщения
Вы не можете редактировать свои сообщения
Вы не можете удалять свои сообщения
Вы не можете добавлять вложения

Перейти:  

!ВНИМАНИЕ!
 Ресурс не предоставляет электронные версии произведений, а занимается лишь коллекционированием и каталогизацией ссылок, присылаемых и публикуемых на форуме нашими читателями. Если вы являетесь правообладателем какого-либо представленного материала и не желаете чтобы ссылка на него находилась в нашем каталоге, свяжитесь с нами и мы незамедлительно удалим её. Файлы для обмена на трекере предоставлены пользователями сайта, и администрация не несёт ответственности за их содержание. Просьба не заливать файлы, защищенные авторскими правами, а также файлы нелегального содержания!