На всех торрентах на трекере установлена скидка на скачивание в размере 100 процентов(а).
 Возможность скачивания торрента НЕ зависит от ограничений при низком ратио, низком аплоаде, требуемом ратио или требуемом аплоаде.


Начать новую тему Ответить на тему
Статистика раздачи
Размер: 4.37 ГБ | Добавлен: 25 фев 2014, 22:42 | Скачали: 0
Сидеров: 35  [0 байт/сек]    Личеров: 11  [0 байт/сек]
Пред. тема | След. тема 

Автор
Сообщение

СообщениеДобавлено: 25 фев 2014, 22:42 

Поезд на Юму / 3:10 to Yuma
Страна: США
Жанр: Боевик, драма, вестерн, криминал
Год выпуска: 2007
Продолжительность: 02:02:30
Перевод : Профессиональный (дубляж)
Русские субтитры: есть
Формат субтитров: srt
Оригинальная аудиодорожка: Английская
Режиссёр: Джеймс Мэнголд / James Mangold
В ролях: Рассел Кроу, Кристиан Бэйл, Логан Лерман, Даллас Робертс, Бен Фостер, Питер Фонда, Винесса Шоу, Алан Тьюдик, Стивен Хартли, Гретхен Мол, Ленни Лофтин, Рио Александр
Описание: После ареста известного бандита Бена Уэйда его банда продолжает угрожать местным жителям. Ветеран Гражданской войны и владелец небольшого ранчо Дэн Эванс соглашается тайно доставить Уэйда в ближайший город с железнодорожной станцией, чтобы того доставили на поезде в форт Юма. Как только они останавливаются в гостинице, становится очевидным, что тайна раскрыта, и за обоими начинается охота...
Тип релиза: BDRip
Контейнер: MKV
Видео: H264 / 4015 kbps / 1280x534 / 23,976 fps / High Profile 4.1
Аудио 1: Русский дубляж Dolby Digital / 5.1 / 48 kHz / 448 kbps
Аудио 2: Английский Dolby Digital EX / 5.1 / 48 kHz / 640 kbps
Cубтитры 1: Русские
Cубтитры 2: Английские
Чаптеры: 16 шт.





x264
Код:
Код:
x264 [info]: frame I:1344  Avg QP:17.58  size: 79503
x264 [info]: frame P:36734 Avg QP:19.74  size: 31395
x264 [info]: frame B:138158 Avg QP:20.57  size: 17575
x264 [info]: SSIM Mean Y:0.9728229 (15.501db)

MediaInfo
Код:
Код:
Полное имя                       : 3.10.to.Yuma.2007.Blu-ray.720p.x264.Rus.Eng.mkv
Формат                           : Matroska
Размер файла                     : 4,37 Гбайт
Продолжительность                : 2 ч. 2 м.
Общий поток                      : 5104 Кбит/сек
Название фильма                  : HANSMER
Дата кодирования                 : UTC 2011-02-07 17:51:00
Программа кодирования            : mkvmerge v4.5.0 ('Speed of Light') сборка от Feb  1 2011 02:10:32
Библиотека кодирования           : libebml v1.2.0 + libmatroska v1.1.0

Видео
Идентификатор                    : 1
Формат                           : AVC
Формат/Информация                : Advanced Video Codec
Профиль формата                  : High@L4.1
Параметр CABAC формата           : Да
Параметр ReFrames формата        : 11 кадры
Идентификатор кодека             : V_MPEG4/ISO/AVC
Продолжительность                : 2 ч. 2 м.
Битрейт                          : 4015 Кбит/сек
Ширина                           : 1280 пикс.
Высота                           : 534 пикс.
Соотношение сторон               : 2,35:1
Частота кадров                   : 23,976 кадр/сек
Цветовое пространство            : YUV
Подвыборка цветности             : 4:2:0
Битовая глубина                  : 8 бит
Тип развёртки                    : Прогрессивная
Бит/(Пиксели*Кадры)              : 0.245
Размер потока                    : 3,35 Гбайт (77%)
Заголовок                        : 3:10.to.Yuma.2007.Blu-ray.720p.x264
Библиотека кодирования           : x264 core 113 r1884 7313bb5
Настройки программы              : cabac=1 / ref=11 / deblock=1:-3:-3 / analyse=0x3:0x113 / me=esa / subme=10 / psy=1 / psy_rd=1.00:0.00 / mixed_ref=1 / me_range=32 / chroma_me=1 / trellis=2 / 8x8dct=1 / cqm=0 / deadzone=21,11 / fast_pskip=0 / chroma_qp_offset=-2 / threads=12 / sliced_threads=0 / nr=0 / decimate=1 / interlaced=0 / constrained_intra=0 / bframes=10 / b_pyramid=2 / b_adapt=2 / b_bias=0 / direct=3 / weightb=1 / open_gop=0 / weightp=2 / keyint=250 / keyint_min=23 / scenecut=40 / intra_refresh=0 / rc_lookahead=60 / rc=2pass / mbtree=0 / bitrate=4015 / ratetol=1.0 / qcomp=0.70 / qpmin=10 / qpmax=69 / qpstep=4 / cplxblur=20.0 / qblur=0.5 / vbv_maxrate=50000 / vbv_bufsize=62500 / nal_hrd=none / ip_ratio=1.40 / pb_ratio=1.30 / aq=1:1.00
Язык                             : English
Коэффициенты матрицы             : BT.709-5, BT.1361, IEC 61966-2-4 709, SMPTE RP177

Аудио #1
Идентификатор                    : 2
Формат                           : AC-3
Формат/Информация                : Audio Coding 3
Расширение режима                : CM (complete main)
Идентификатор кодека             : A_AC3
Продолжительность                : 2 ч. 2 м.
Вид битрейта                     : Постоянный
Битрейт                          : 448 Кбит/сек
Канал(ы)                         : 6 канала(ов)
Расположение каналов             : Front: L C R, Side: L R, LFE
Частота                          : 48,0 КГц
Битовая глубина                  : 16 бит
Метод сжатия                     : С потерями
Размер потока                    : 393 Мбайт (9%)
Язык                             : Russian

Аудио #2
Идентификатор                    : 3
Формат                           : AC-3
Формат/Информация                : Audio Coding 3
Расширение режима                : CM (complete main)
Идентификатор кодека             : A_AC3
Продолжительность                : 2 ч. 2 м.
Вид битрейта                     : Постоянный
Битрейт                          : 640 Кбит/сек
Канал(ы)                         : 6 канала(ов)
Расположение каналов             : Front: L C R, Side: L R, LFE
Частота                          : 48,0 КГц
Битовая глубина                  : 16 бит
Метод сжатия                     : С потерями
Размер потока                    : 561 Мбайт (13%)
Язык                             : English

Текст #1
Идентификатор                    : 4
Формат                           : UTF-8
Идентификатор кодека             : S_TEXT/UTF8
Идентификатор кодека/Информация  : UTF-8 Plain Text
Язык                             : Russian

Текст #2
Идентификатор                    : 5
Формат                           : UTF-8
Идентификатор кодека             : S_TEXT/UTF8
Идентификатор кодека/Информация  : UTF-8 Plain Text
Язык                             : English

Меню
00:00:00.000                     : :00:00:00.000
00:07:32.285                     : :00:07:32.285
00:14:14.771                     : :00:14:14.771
00:19:05.936                     : :00:19:05.936
00:30:23.447                     : :00:30:23.447
00:36:40.698                     : :00:36:40.698
00:45:13.794                     : :00:45:13.794
00:51:59.033                     : :00:51:59.033
00:57:35.285                     : :00:57:35.285
01:05:47.026                     : :01:05:47.026
01:16:53.859                     : :01:16:53.859
01:24:57.968                     : :01:24:57.968
01:35:10.371                     : :01:35:10.371
01:43:55.896                     : :01:43:55.896
01:50:31.583                     : :01:50:31.583
01:54:52.135                     : :01:54:52.135
загрузка...
Правила, инструкции, FAQ!!!
Торрент  Добавлен [25 фев 2014, 22:42] Скачать торрент
Скачать торрент
[ Размер 22.35 КБ / Просмотров 8 ]

Статус  
 
Размер  4.37 ГБ
Приватный: Нет (DHT включён)
.torrent скачан  0
Как залить торрент? | Как скачать Torrent? | Как смотреть и слушать онлайн?  


     Отправить личное сообщение
   
Страница 1 из 1
Показать сообщения за:  Поле сортировки  
Начать новую тему Ответить на тему

   Похожие торренты   Автор   Ответы   Просмотры   Последнее сообщение 
В этой теме нет новых непрочитанных сообщений. Скачать торрент Поезд на Юму / 3:10 to Yuma (Джэймс Мэнголд / James Mangold) [2007, США, боевик, драма, вестерн, криминал, BDRip] DUB + original + SUB[rus, eng]

в форуме Боевики, Размер: 2.18 ГБ, Здоровье: 100%

Anonymous

0
48|16

37
0

14 апр 2014, 09:26

Anonymous Перейти к последнему сообщению

В этой теме нет новых непрочитанных сообщений. Скачать торрент Поезд на Юму / 3:10 to Yuma (Джэймс Мэнголд / James Mangold) [2007 г., Боевик, Вестерн, Приключения, HDRip] Dub

в форуме Боевики, Размер: 743.82 МБ, Здоровье: 100%

Anonymous

0
5|1

39
0

14 фев 2014, 07:43

Anonymous Перейти к последнему сообщению

В этой теме нет новых непрочитанных сообщений. Скачать торрент Рыцарь дня / Knight and Day (Джеймс Мэнголд / James Mangold) [2010 г., Боевик, Приключения, Комедия, BDRip-AVC] Dub + Original + SUB Rus Eng + NAV 720p Расширенная Версия / Extended Cut

в форуме 720p | 1080p, Размер: 2.89 ГБ, Здоровье: 100%

Anonymous

0
34|11

34
0

11 фев 2014, 09:16

Anonymous Перейти к последнему сообщению

В этой теме нет новых непрочитанных сообщений. Скачать торрент Проверен [iPad] Переступить черту / Walk the Line (Джеймс Мэнголд / James Mangold) [ 2005, драма, мелодрама, биография, BDRip, 720p]

в форуме Фильмы для iPod, iPhone, iPad, Размер: 3.57 ГБ, Здоровье: 100%

Гость

0
19|5

40
1

12 май 2015, 00:06

Гость Перейти к последнему сообщению

В этой теме нет новых непрочитанных сообщений. Скачать торрент Рыцарь дня / Knight and Day (Джеймс Мэнголд / James Mangold) [2010, США, Боевик, комедия, приключения, BDRip] [Расширенная версия / Extended cut] Dub

в форуме Боевики, Размер: 1.46 ГБ, Здоровье: 100%

Anonymous

0
56|19

38
0

16 апр 2014, 07:48

Anonymous Перейти к последнему сообщению



Сейчас этот форум просматривают: нет зарегистрированных пользователей и гости: 4


Вы не можете начинать темы
Вы не можете отвечать на сообщения
Вы не можете редактировать свои сообщения
Вы не можете удалять свои сообщения
Вы не можете добавлять вложения

Перейти:  

!ВНИМАНИЕ!
 Ресурс не предоставляет электронные версии произведений, а занимается лишь коллекционированием и каталогизацией ссылок, присылаемых и публикуемых на форуме нашими читателями. Если вы являетесь правообладателем какого-либо представленного материала и не желаете чтобы ссылка на него находилась в нашем каталоге, свяжитесь с нами и мы незамедлительно удалим её. Файлы для обмена на трекере предоставлены пользователями сайта, и администрация не несёт ответственности за их содержание. Просьба не заливать файлы, защищенные авторскими правами, а также файлы нелегального содержания!