На всех торрентах на трекере установлена скидка на скачивание в размере 100 процентов(а).
 Возможность скачивания торрента НЕ зависит от ограничений при низком ратио, низком аплоаде, требуемом ратио или требуемом аплоаде.


Начать новую тему Ответить на тему
Статистика раздачи
Размер: 4.9 ГБ | Добавлен: 25 фев 2014, 22:42 | Скачали: 0
Сидеров: 0  [0 байт/сек]    Личеров: 0  [0 байт/сек]
Пред. тема | След. тема 

Автор
Сообщение

СообщениеДобавлено: 25 фев 2014, 22:42 

Молодая Виктория / The Young Victoria
«Она правила миллионами, но ее сердце принадлежало единственному мужчине.»
Страна: США, Великобритания
Жанр: драма, мелодрама, биография, история
Год выпуска: 2009
Продолжительность: 01:44:39

Перевод: Профессиональный (дублированный)
Cубтитры: русские, английские
Оригинальная аудиодорожка: английский

Режиссер: Жан-Марк Валли / Jean-Marc Vallée

В ролях: Эмили Блант (Queen Victoria), Руперт Френд (Prince Albert), Пол Беттани (Lord Melbourne), Миранда Ричардсон (Duchess of Kent), Джим Броудбент (King William), Томас Кречманн (King Leopold), Марк Стронг (Sir John Conroy), Еспер Кристенсен (Baron Stockmar), Харриет Уолтер (Queen Adelaide), Жанетт Хайн (Baroness Lehzen), Джулиан Гловер (Duke of Wellington), Майкл Мэлоуни (Sir Robert Peel)
Дублёры: Андрей Саминин

Описание: Экранизация первых лет правления королевы Виктории и история ее длительного романа с принцем Альбертом. Королева Виктория, родившаяся на свет 24 мая 1819 года, при крещении получила имя Александрины Виктории. Ее отец герцог Кентский, брат короля Вильгельма IV, умер в 1820 году, когда девочке было всего восемь месяцев от роду. С тех пор Виктория находилась под неусыпным надзором своей матери и ее ближайшего наперсника сэра Джона Конроя. Они настолько строго опекали девочку, что не позволяли ей одной выходить из дома или, упаси боже, появляться при дворе, который рисовался ее матери рассадником всяческих пороков. В 11 лет она осознала, что ей предначертано стать королевой Британской империи ... . Вильгельм IV активно не любил свою невестку, герцогиню Кентскую. Он не без основания подозревал, что она лелеет тайные замыслы в случае его смерти занять положение регентши, пока ее дочери не исполнится восемнадцать лет. Надо думать, он получил истинное удовольствие, став свидетелем совершеннолетия Виктории. Это наслаждение не смог испортить даже тот факт, что сам он скончался всего месяц спустя. Молодая королева вступила на английский трон и стала править без помощи своей матери. Еще совсем юная, она сумела добиться уважения и любви своего народа. Виктория пробыла на троне более 63 лет - больше, чем любой другой британский монарх. Викторианская эпоха совпала с периодом наибольшего расцвета Британской империи. Но для нее самые счастливые годы - те, что она любила и была любима.

Тип релиза: BDRip 720p
Контейнер: MKV

Видео: MPEG-4 AVC, 1280x544 at 23.976 fps 4800 Kbps
Аудио: Russian: 48 kHz, AC3, 3/2 (L,C,R,l,r) + LFE ch, ~384.00 kbps avg |Дубляж, R5|
Аудио 2: English: DTS: 5.1 / 48 kHz / 1510 kbps / 24-bit)
Формат субтитров: softsub (SRT)
MediaInfo
F:\Молодая Виктория\The.Young.Victoria.2009.x264.BDRip720p_by_Doktor_S..mkv
General
Unique ID : 224214872411891573805552172979801756245 (0xA8AE36B3700F6AEBBE4AFC54C83B1255)
Complete name : F:\Молодая Виктория\The.Young.Victoria.2009.x264.BDRip720p_by_Doktor_S..mkv
Format : Matroska
File size : 4.90 GiB
Duration : 1h 44mn
Overall bit rate : 6 696 Kbps
Movie name : Молодая Виктория (2009)
Encoded date : UTC 2012-01-07 22:31:03
Writing application : mkvmerge v5.2.0 ('I can't explain') built on Dec 18 2011 18:12:03
Writing library : libebml v1.2.3 + libmatroska v1.3.0
Video #1
ID : 1
Format : AVC
Format/Info : Advanced Video Codec
Format profile : High@L4.1
Format settings, CABAC : Yes
Format settings, ReFrames : 9 frames
Format settings, GOP : M=4, N=54
Codec ID : V_MPEG4/ISO/AVC
Duration : 1h 44mn
Bit rate : 4 800 Kbps
Width : 1 280 pixels
Height : 544 pixels
Display aspect ratio : 2.35:1
Frame rate : 23.976 fps
Color space : YUV
Chroma subsampling : 4:2:0
Bit depth : 8 bits
Scan type : Progressive
Bits/(Pixel*Frame) : 0.288
Stream size : 3.41 GiB (70%)
Writing library : x264 core 115 r1995 c1e60b9
Encoding settings : cabac=1 / ref=9 / deblock=1:-3:-3 / analyse=0x3:0x133 / me=umh / subme=9 / psy=1 / psy_rd=1.00:0.00 / mixed_ref=1 / me_range=32 / chroma_me=1 / trellis=2 / 8x8dct=1 / cqm=0 / deadzone=21,11 / fast_pskip=1 / chroma_qp_offset=-2 / threads=12 / sliced_threads=0 / nr=0 / decimate=1 / interlaced=0 / bluray_compat=0 / constrained_intra=0 / bframes=3 / b_pyramid=2 / b_adapt=2 / b_bias=0 / direct=3 / weightb=1 / open_gop=0 / weightp=2 / keyint=250 / keyint_min=23 / scenecut=40 / intra_refresh=0 / rc_lookahead=60 / rc=2pass / mbtree=1 / bitrate=4800 / ratetol=1.0 / qcomp=0.60 / qpmin=10 / qpmax=51 / qpstep=4 / cplxblur=20.0 / qblur=0.5 / vbv_maxrate=40000 / vbv_bufsize=40000 / nal_hrd=none / ip_ratio=1.40 / aq=1:1.00
Language : English
Audio #2
ID : 2
Format : DTS
Format/Info : Digital Theater Systems
Codec ID : A_DTS
Duration : 1h 44mn
Bit rate mode : Constant
Bit rate : 1 510 Kbps
Channel(s) : 6 channels
Channel positions : Front: L C R, Side: L R, LFE
Sampling rate : 48.0 KHz
Bit depth : 24 bits
Compression mode : Lossy
Stream size : 1.10 GiB (23%)
Language : English
Audio #5
ID : 5
Format : AC-3
Format/Info : Audio Coding 3
Mode extension : CM (complete main)
Codec ID : A_AC3
Duration : 1h 44mn
Bit rate mode : Constant
Bit rate : 384 Kbps
Channel(s) : 6 channels
Channel positions : Front: L C R, Side: L R, LFE
Sampling rate : 48.0 KHz
Bit depth : 16 bits
Compression mode : Lossy
Stream size : 287 MiB (6%)
Title : Дубляж, R5
Language : Russian
Text #3
ID : 3
Format : UTF-8
Codec ID : S_TEXT/UTF8
Codec ID/Info : UTF-8 Plain Text
Language : English
Text #4
ID : 4
Format : UTF-8
Codec ID : S_TEXT/UTF8
Codec ID/Info : UTF-8 Plain Text
Title : Русские
Language : Russian
Скриншоты
загрузка...
Правила, инструкции, FAQ!!!
Торрент  Добавлен [25 фев 2014, 22:42] Скачать торрент
Скачать торрент
[ Размер 12.82 КБ / Просмотров 17 ]

Статус  
 
Размер  4.9 ГБ
Приватный: Нет (DHT включён)
.torrent скачан  0
Как залить торрент? | Как скачать Torrent? | Как смотреть и слушать онлайн?  


     Отправить личное сообщение
   
Страница 1 из 1
Показать сообщения за:  Поле сортировки  
Начать новую тему Ответить на тему

   Похожие торренты   Автор   Ответы   Просмотры   Последнее сообщение 
В этой теме нет новых непрочитанных сообщений. Скачать торрент Волшебная страна / Finding Neverland (Марк Форстер / Marc Forster) [2004, США, Великобритания, драма, семейный, биография, HDRip] Dub

в форуме Детское, Семейное кино, Размер: 1.46 ГБ, Здоровье: 100%

Anonymous

0
26|16

70
0

28 апр 2014, 22:42

Anonymous Перейти к последнему сообщению

В этой теме нет новых непрочитанных сообщений. Скачать торрент 500 дней лета / (500) Days of Summer (Марк Уэбб / Marc Webb) [2009, комедия, мелодрама, драма, BDRip] Dub

в форуме Комедии, Размер: 2.18 ГБ, Здоровье: 0%

Anonymous

0
0|0

38
0

14 апр 2014, 09:28

Anonymous Перейти к последнему сообщению

В этой теме нет новых непрочитанных сообщений. Скачать торрент Не отпускай меня / Never let me go (Марк Романек / Mark Romanek) [2010 г., США, Великобритания, драма, мелодрама, BDRip-AVC]

в форуме Драмы, Мелодрамы, Размер: 2.18 ГБ, Здоровье: 100%

Anonymous

0
23|7

34
0

14 апр 2014, 09:28

Anonymous Перейти к последнему сообщению

В этой теме нет новых непрочитанных сообщений. Скачать торрент Голод / Hunger (Стив МакКуин / Steve McQueen) [2008, Великобритания, Ирландия, драма, биография, история, BDRip]

в форуме Драмы, Мелодрамы, Размер: 2.12 ГБ, Здоровье: 100%

Anonymous

0
23|8

124
0

17 фев 2014, 11:47

Anonymous Перейти к последнему сообщению

В этой теме нет новых непрочитанных сообщений. Скачать торрент Голод / Hunger (Стив МакКуин / Steve McQueen) [2008, Великобритания, Ирландия, драма, биография, история, BDRip] AVO (Юрий Сербин)

в форуме Драмы, Мелодрамы, Размер: 1.43 ГБ, Здоровье: 0%

Anonymous

0
0|0

132
0

06 фев 2014, 11:42

Anonymous Перейти к последнему сообщению



Сейчас этот форум просматривают: нет зарегистрированных пользователей и гости: 1


Вы не можете начинать темы
Вы не можете отвечать на сообщения
Вы не можете редактировать свои сообщения
Вы не можете удалять свои сообщения
Вы не можете добавлять вложения

Перейти:  

!ВНИМАНИЕ!
 Ресурс не предоставляет электронные версии произведений, а занимается лишь коллекционированием и каталогизацией ссылок, присылаемых и публикуемых на форуме нашими читателями. Если вы являетесь правообладателем какого-либо представленного материала и не желаете чтобы ссылка на него находилась в нашем каталоге, свяжитесь с нами и мы незамедлительно удалим её. Файлы для обмена на трекере предоставлены пользователями сайта, и администрация не несёт ответственности за их содержание. Просьба не заливать файлы, защищенные авторскими правами, а также файлы нелегального содержания!