На всех торрентах на трекере установлена скидка на скачивание в размере 100 процентов(а).
 Возможность скачивания торрента НЕ зависит от ограничений при низком ратио, низком аплоаде, требуемом ратио или требуемом аплоаде.


Начать новую тему Ответить на тему
Статистика раздачи
Размер: 10.07 ГБ | Добавлен: 25 фев 2014, 22:42 | Скачали: 0
Сидеров: 8  [0 байт/сек]    Личеров: 2  [0 байт/сек]
Пред. тема | След. тема 

Автор
Сообщение

СообщениеДобавлено: 25 фев 2014, 22:42 

Индиана Джонс: В поисках утраченного ковчега / Raiders of the Lost Ark

«Indiana Jones - the new hero from the creators of JAWS and STAR WARS.»
Год выпуска: 1981
Страна: США
Жанр: боевик, приключения
Продолжительность: 01:55:18
Перевод: Многоголосый закадровый (Киномания, НТВ+) + Двухголосый закадровый (П.Гланц и Е.Лютая) + Одноголосый закадровый (Гаврилов, Михалев, Горчаков, Живов, Володарский)
Русские субтитры: есть
Режиссер: Стивен Спилберг / Steven Spielberg
В ролях: Харрисон Форд, Карен Аллен, Пол Фримен, Рональд Лейси, Джон Рис-Дэвис, Денхолм Эллиот, Альфред Молина, Вольф Калер, Энтони Хиггинс, Вик Тэблиан
Описание:
Известный археолог и специалист по оккультным наукам доктор Джонс получает опасное задание от правительства США. Он должен отправиться на поиски уникальной реликвии — священного Ковчега. Но Индиана и не подозревает, что аналогичный приказ уже получили тайные агенты Адольфа Гитлера…

Этим потрясающим фильмом продюсер Джордж Лукас и режиссер Стивен Спилберг положили начало саги о странствиях благородного доктора Джонса по всевозможным уголкам земного шара.
IMDB: 8.7/10 (267,286) Тор 250: 22
Кинопоиск: 8.046 (21 193) Тор 250: 217
Доп. информация: После выхода лицензии, более качественных дорог и сабов, релиз будет обновлен.
Качество: BDRip 720p
Формат: MKV
Видео кодек: H.264
Аудио кодек: AC3
Видео: 1280х544 / 23.976 fps / 2.35:1 / High Profile 4.1 / х264 ~8300 kbps
Аудио 1: Russian: 48 kHz, AC3, 3/2 (L,C,R,l,r) + LFE ch, ~384.00 kbps avg - Многоголосый закадровый (Киномания)
Аудио 2: Russian: 48 kHz, AC3, 3/2 (L,C,R,l,r) + LFE ch, ~448.00 kbps avg - Многоголосый закадровый (НТВ+)
Аудио 3: Russian: 48 kHz, AC3, 3/2 (L,C,R,l,r) + LFE ch, ~448.00 kbps avg - Двухголосый закадровый (П.Гланц и Е.Лютая)
Аудио 4: Russian: 48 kHz, AC3, 3/2 (L,C,R,l,r) + LFE ch, ~384.00 kbps avg - Авторский одноголосый (Гаврилов)
Аудио 5: Russian: 48 kHz, AC3, 3/2 (L,C,R,l,r) + LFE ch, ~448.00 kbps avg - Авторский одноголосый (Михалев)
Аудио 6: Russian: 48 kHz, AC3, 2/0 (L,R) ch, ~192.00 kbps avg - Авторский одноголосый (Горчаков)
Аудио 7: Russian: 48 kHz, AC3, 2/0 (L,R) ch, ~192.00 kbps avg - Авторский одноголосый (Живов)
Аудио 8: Russian: 48 kHz, AC3, 2/0 (L,R) ch, ~192.00 kbps avg - Авторский одноголосый (Володарский)
Аудио 9: English: 48 kHz/24-bit, DTS Audio, 3/2 (L,C,R,l,r) + LFE ch, ~1510.00 kbps avg
Субтитры: English, Russian
Релиз:
MediaInfo и x264.log:
General
Unique ID : 198190586992151804440880451235216924572 (0x951A1E5DC64C3F90966AC22226889F9C)
Complete name : G:\Indiana.Dzhons.v.poiskah.utrachennogo.kovchega.1981.x264.BDRip.720p.HDTracker.mkv
Format : Matroska
Format version : Version 2
File size : 10.1 GiB
Duration : 1h 55mn
Overall bit rate : 12.5 Mbps
Movie name : =HDTracker= by =WhiteHorse=
Encoded date : UTC 2011-11-09 21:07:13
Writing application : mkvmerge v4.4.0 ('Die Wiederkehr') сборка от Oct 31 2010 21:52:48
Writing library : libebml v1.0.0 + libmatroska v1.0.0

Video
ID : 1
Format : AVC
Format/Info : Advanced Video Codec
Format profile : High@L4.1
Format settings, CABAC : Yes
Format settings, ReFrames : 8 frames
Codec ID : V_MPEG4/ISO/AVC
Duration : 1h 55mn
Bit rate : 8 300 Kbps
Width : 1 280 pixels
Height : 544 pixels
Display aspect ratio : 2.35:1
Frame rate : 23.976 fps
Color space : YUV
Chroma subsampling : 4:2:0
Bit depth : 8 bits
Scan type : Progressive
Bits/(Pixel*Frame) : 0.497
Stream size : 6.49 GiB (64%)
Title : Видеоряд
Writing library : x264 core 92 r1510 33d382a
Encoding settings : cabac=1 / ref=8 / deblock=1:-3:-3 / analyse=0x3:0x133 / me=esa / subme=10 / psy=1 / psy_rd=1.00:0.10 / mixed_ref=1 / me_range=32 / chroma_me=1 / trellis=2 / 8x8dct=1 / cqm=0 / deadzone=21,11 / fast_pskip=0 / chroma_qp_offset=-5 / threads=6 / sliced_threads=0 / nr=0 / decimate=1 / interlaced=0 / con-strained_intra=0 / bframes=6 / b_pyramid=2 / b_adapt=2 / b_bias=0 / direct=3 / wpredb=1 / wpredp=2 / keyint=240 / keyint_min=23 / scenecut=40 / intra_refresh=0 / rc_lookahead=50 / rc=2pass / mbtree=1 / bitrate=8300 / ratetol=1.0 / qcomp=0.60 / qpmin=1 / qpmax=51 / qpstep=4 / cplxblur=20.0 / qblur=0.5 / vbv_maxrate=40000 / vbv_bufsize=30000 / ip_ratio=1.40 / aq=1:1.00 / nal_hrd=none

Audio #1
ID : 2
Format : AC-3
Format/Info : Audio Coding 3
Mode extension : CM (complete main)
Codec ID : A_AC3
Duration : 1h 55mn
Bit rate mode : Constant
Bit rate : 384 Kbps
Channel(s) : 6 channels
Channel positions : Front: L C R, Side: L R, LFE
Sampling rate : 48.0 KHz
Bit depth : 16 bits
Compression mode : Lossy
Stream size : 317 MiB (3%)
Title : Многоголосый (Киномания)
Language : Russian

Audio #2
ID : 3
Format : AC-3
Format/Info : Audio Coding 3
Mode extension : CM (complete main)
Codec ID : A_AC3
Duration : 1h 55mn
Bit rate mode : Constant
Bit rate : 448 Kbps
Channel(s) : 6 channels
Channel positions : Front: L C R, Side: L R, LFE
Sampling rate : 48.0 KHz
Bit depth : 16 bits
Compression mode : Lossy
Stream size : 370 MiB (4%)
Title : Многоголосый (НТВ+)
Language : Russian

Audio #3
ID : 4
Format : AC-3
Format/Info : Audio Coding 3
Mode extension : CM (complete main)
Codec ID : A_AC3
Duration : 1h 55mn
Bit rate mode : Constant
Bit rate : 448 Kbps
Channel(s) : 6 channels
Channel positions : Front: L C R, Side: L R, LFE
Sampling rate : 48.0 KHz
Bit depth : 16 bits
Compression mode : Lossy
Stream size : 370 MiB (4%)
Title : Двухголосый (Гланц и Лютая)
Language : Russian

Audio #4
ID : 5
Format : AC-3
Format/Info : Audio Coding 3
Mode extension : CM (complete main)
Codec ID : A_AC3
Duration : 1h 55mn
Bit rate mode : Constant
Bit rate : 384 Kbps
Channel(s) : 6 channels
Channel positions : Front: L C R, Side: L R, LFE
Sampling rate : 48.0 KHz
Bit depth : 16 bits
Compression mode : Lossy
Stream size : 317 MiB (3%)
Title : Гаврилов
Language : Russian

Audio #5
ID : 6
Format : AC-3
Format/Info : Audio Coding 3
Mode extension : CM (complete main)
Codec ID : A_AC3
Duration : 1h 55mn
Bit rate mode : Constant
Bit rate : 448 Kbps
Channel(s) : 6 channels
Channel positions : Front: L C R, Side: L R, LFE
Sampling rate : 48.0 KHz
Bit depth : 16 bits
Compression mode : Lossy
Stream size : 370 MiB (4%)
Title : Михалев
Language : Russian

Audio #6
ID : 7
Format : AC-3
Format/Info : Audio Coding 3
Mode extension : CM (complete main)
Codec ID : A_AC3
Duration : 1h 55mn
Bit rate mode : Constant
Bit rate : 192 Kbps
Channel(s) : 2 channels
Channel positions : Front: L R
Sampling rate : 48.0 KHz
Bit depth : 16 bits
Compression mode : Lossy
Stream size : 158 MiB (2%)
Title : Горчаков
Language : Russian

Audio #7
ID : 8
Format : AC-3
Format/Info : Audio Coding 3
Mode extension : CM (complete main)
Codec ID : A_AC3
Duration : 1h 55mn
Bit rate mode : Constant
Bit rate : 192 Kbps
Channel(s) : 2 channels
Channel positions : Front: L R
Sampling rate : 48.0 KHz
Bit depth : 16 bits
Compression mode : Lossy
Stream size : 158 MiB (2%)
Title : Живов
Language : Russian

Audio #8
ID : 9
Format : AC-3
Format/Info : Audio Coding 3
Mode extension : CM (complete main)
Codec ID : A_AC3
Duration : 1h 55mn
Bit rate mode : Constant
Bit rate : 192 Kbps
Channel(s) : 2 channels
Channel positions : Front: L R
Sampling rate : 48.0 KHz
Bit depth : 16 bits
Compression mode : Lossy
Stream size : 158 MiB (2%)
Title : Володарский
Language : Russian

Audio #9
ID : 10
Format : DTS
Format/Info : Digital Theater Systems
Codec ID : A_DTS
Duration : 1h 55mn
Bit rate mode : Constant
Bit rate : 1 510 Kbps
Channel(s) : 6 channels
Channel positions : Front: L C R, Side: L R, LFE
Sampling rate : 48.0 KHz
Bit depth : 24 bits
Compression mode : Lossy
Stream size : 1.22 GiB (12%)
Title : Английский
Language : English

Text #1
ID : 11
Format : UTF-8
Codec ID : S_TEXT/UTF8
Codec ID/Info : UTF-8 Plain Text
Title : Русские (full)
Language : Russian

Text #2
ID : 12
Format : UTF-8
Codec ID : S_TEXT/UTF8
Codec ID/Info : UTF-8 Plain Text
Title : Английские (full)
Language : English

Text #3
ID : 13
Format : UTF-8
Codec ID : S_TEXT/UTF8
Codec ID/Info : UTF-8 Plain Text
Title : Английские (SDH)
Language : English

Menu
00:00:00.000 : :Chapter 01
00:03:16.529 : :Chapter 02
00:05:44.635 : :Chapter 03
00:09:51.132 : :Chapter 04
00:12:49.351 : :Chapter 05
00:15:23.631 : :Chapter 06
00:20:27.434 : :Chapter 07
00:22:58.418 : :Chapter 08
00:28:51.354 : :Chapter 09
00:33:42.395 : :Chapter 10
00:36:23.389 : :Chapter 11
00:40:04.819 : :Chapter 12
00:42:16.158 : :Chapter 13
00:46:41.507 : :Chapter 14
00:49:32.928 : :Chapter 15
00:51:00.932 : :Chapter 16
00:55:11.141 : :Chapter 17
00:58:33.218 : :Chapter 18
01:03:05.740 : :Chapter 19
01:08:26.143 : :Chapter 20
01:10:25.346 : :Chapter 21
01:15:33.153 : :Chapter 22
01:22:24.356 : :Chapter 23
01:25:43.763 : :Chapter 24
01:29:57.517 : :Chapter 25
01:34:30.665 : :Chapter 26
01:38:06.171 : :Chapter 27
01:41:06.060 : :Chapter 28
01:44:06.823 : :Chapter 29
01:47:01.415 : :Chapter 30
01:49:05.997 : :Chapter 31
01:55:18.620 : :Chapter 32

----------------------------------------------------------------------------------

x264 [info]: frame I:1400 Avg QP:14.80 size:169162
x264 [info]: frame P:35690 Avg QP:17.52 size: 80079
x264 [info]: frame B:128796 Avg QP:20.10 size: 31705
x264 [info]: consecutive B-frames: 0.8% 1.9% 6.5% 26.2% 18.2% 39.3% 7.2%
x264 [info]: mb I I16..4: 15.0% 58.9% 26.1%
x264 [info]: mb P I16..4: 1.3% 22.1% 2.6% P16..4: 33.3% 28.3% 8.1% 0.9% 0.8% skip: 2.6%
x264 [info]: mb B I16..4: 0.2% 6.3% 0.4% B16..8: 39.9% 3.7% 5.8% direct:16.9% skip:26.9% L0:41.5% L1:39.7% BI:18.8%
x264 [info]: 8x8 transform intra:86.1% inter:61.6%
x264 [info]: direct mvs spatial:97.2% temporal:2.8%
x264 [info]: coded y,uvDC,uvAC intra: 96.5% 98.4% 95.2% inter: 44.2% 53.0% 35.0%
x264 [info]: i16 v,h,dc,p: 16% 8% 32% 43%
x264 [info]: i8 v,h,dc,ddl,ddr,vr,hd,vl,hu: 9% 8% 11% 9% 13% 12% 13% 11% 13%
x264 [info]: i4 v,h,dc,ddl,ddr,vr,hd,vl,hu: 8% 8% 5% 9% 15% 14% 14% 12% 14%
x264 [info]: Weighted P-Frames: Y:5.9%
x264 [info]: ref P L0: 37.4% 22.5% 11.3% 7.1% 8.3% 4.6% 5.4% 2.9% 0.4% 0.0%
x264 [info]: ref B L0: 72.1% 14.0% 5.9% 3.6% 2.4% 1.4% 0.6%
x264 [info]: ref B L1: 93.2% 6.8%
x264 [info]: kb/s:8300.02
Скриншоты:
загрузка...
Правила, инструкции, FAQ!!!
Торрент  Добавлен [25 фев 2014, 22:42] Скачать торрент
Скачать торрент
[ Размер 101.22 КБ / Просмотров 20 ]

Статус  
 
Размер  10.07 ГБ
Приватный: Нет (DHT включён)
.torrent скачан  0
Как залить торрент? | Как скачать Torrent? | Как смотреть и слушать онлайн?  


     Отправить личное сообщение
   
Страница 1 из 1
Показать сообщения за:  Поле сортировки  
Начать новую тему Ответить на тему

   Похожие торренты   Автор   Ответы   Просмотры   Последнее сообщение 
В этой теме нет новых непрочитанных сообщений. Скачать торрент Проверен Индиана Джонс: В поисках утраченного ковчега / Raiders of the Lost Ark (1981) BDRip 1080p

в форуме 720p | 1080p, Размер: 7.95 ГБ, Здоровье: 66%

Гость

0
20|30

35
26

26 авг 2016, 07:54

Гость Перейти к последнему сообщению

В этой теме нет новых непрочитанных сообщений. Скачать торрент Индиана Джонс: В поисках утраченного ковчега / Indiana Jones: Raiders of the Lost Ark (1981) BDRip

в форуме Приключения, Размер: 2.18 ГБ, Здоровье: 100%

Anonymous

0
84|4

64
41

27 фев 2014, 08:35

Anonymous Перейти к последнему сообщению

В этой теме нет новых непрочитанных сообщений. Скачать торрент Проверен [iPad] Индиана Джонс и последний крестовый поход / Indiana Jones and the Last Crusade (Стивен Спилберг/Steven Spielberg) [1989, Боевик, приключения, BDRip, 1024x432] MVO

в форуме Фильмы для iPod, iPhone, iPad, Размер: 2.66 ГБ, Здоровье: 100%

Anonymous

0
26|4

33
2

14 май 2015, 00:26

Anonymous Перейти к последнему сообщению

В этой теме нет новых непрочитанных сообщений. Скачать торрент Проверен [iPad] Индиана Джонс и Храм Судьбы / Indiana Jones and the Temple of Doom (Стивен Спилберг/Steven Spielberg) [1984, Боевик, приключения, BDRip, 1024x432] MVO

в форуме Фильмы для iPod, iPhone, iPad, Размер: 2.48 ГБ, Здоровье: 100%

Anonymous

0
12|4

32
0

14 май 2015, 00:26

Anonymous Перейти к последнему сообщению

В этой теме нет новых непрочитанных сообщений. Скачать торрент Индиана Джонс и Королевство xрустального черепа / Indiana Jones and the Kingdom of the Crystal Skull (Стивен Спилберг / Steven Spielberg) [2008 г., Приключения, боевик, HDRip] Dub

в форуме Приключения, Размер: 745.94 МБ, Здоровье: 100%

Anonymous

0
16|5

87
0

02 апр 2014, 12:07

Anonymous Перейти к последнему сообщению



Сейчас этот форум просматривают: нет зарегистрированных пользователей и гости: 1


Вы не можете начинать темы
Вы не можете отвечать на сообщения
Вы не можете редактировать свои сообщения
Вы не можете удалять свои сообщения
Вы не можете добавлять вложения

Перейти:  

!ВНИМАНИЕ!
 Ресурс не предоставляет электронные версии произведений, а занимается лишь коллекционированием и каталогизацией ссылок, присылаемых и публикуемых на форуме нашими читателями. Если вы являетесь правообладателем какого-либо представленного материала и не желаете чтобы ссылка на него находилась в нашем каталоге, свяжитесь с нами и мы незамедлительно удалим её. Файлы для обмена на трекере предоставлены пользователями сайта, и администрация не несёт ответственности за их содержание. Просьба не заливать файлы, защищенные авторскими правами, а также файлы нелегального содержания!