На всех торрентах на трекере установлена скидка на скачивание в размере 100 процентов(а).
 Возможность скачивания торрента НЕ зависит от ограничений при низком ратио, низком аплоаде, требуемом ратио или требуемом аплоаде.


Начать новую тему Ответить на тему
Статистика раздачи
Размер: 26.67 ГБ | Добавлен: 25 фев 2014, 22:42 | Скачали: 0
Сидеров: 32  [0 байт/сек]    Личеров: 10  [0 байт/сек]
Пред. тема | След. тема 

Автор
Сообщение

СообщениеДобавлено: 25 фев 2014, 22:42 

Год выпуска: 1995
Страна: Великобритания
Жанр: Классика
Продолжительность: 300 мин
Перевод: Профессиональный (многоголосый, закадровый)
Русские субтитры: есть

Режиссер: Саймон Лэнгтон / Simon Langton

В ролях: Колин Ферт — Мистер Дарси
Дженнифер Эль — Мисс Элизабет Беннет
Анна Ченселлор — Мисс Кэролайн Бингли
Криспин Бонэм-Картер — Мистер Чарльз Бингли
Бенджамин Уитроу — Мистер Беннет
Элисон Стэдмен — Миссис Беннет
Джулия Савала — Лидия Беннет
Эдриан Лукис — Мистер Джордж Уикхэм
Дэвид Бамбер — Мистер Коллинз
Барбара Ли-Хант — Леди Кэтерин де Бур
Сюзанна Харкер — Мисс Джейн Беннет
Эмилия Фокс — Джорджиана Дарси

Описание: Роскошная экранизация самого известного и общепризнанного романа Джейн Остин «Гордость и предубеждение». Это история девушки Элизабет, одной из пяти незамужних дочерей небогатого, но уважаемого семейства Беннет. Главной целью своей жизни миссис Беннет видит замужество своих дочерей, но поскольку тем не суждено иметь большое приданое (согласно закону о майорате, все владение по наследству должно перейти единственному представителю мужского пола в роде – их кузену, мистеру Коллинзу), она не упускает ни одной возможности, порой выходя за рамки приличия, пристроить своих девочек наиболее достойным образом (то есть за супругов с немалым достатком). Когда по соседству поселяются два завидных холостяка, мистер Чарльз Бингли и мистер Фицуильям Дарси, жизнь каждой из дочерей Беннет наполняется вихрем событий. Добавьте к этой смеси снобистскую сестру мистера Бингли - мисс Кэролайн, лучшую подругу Элизабет - Шарлотту Лукас, властную тетку Дарси - Леди Кэтрин де Бург и ее дочь Энн, подлого лейтинанта Уикхема и некоторых других, и Вы получите захватывающий роман о любви, гордости и предубеждениях.



Качество: BDRip
Размер: 6 x 4,37Гб (6xDVD5)
Формат: MKV
Видео кодек: H.264
Аудио кодек: AC3
Видео: 1920x1080, ~9500 Kbps, 23.976 fps
Аудио: Russian AC3 5.1 (48khz, 384 kbps, 5.1ch), English DTS 5.1 (48khz, 1536 kbps, 5.1ch)
Субтитры: Русские, Английские
Скриншоты
Скриншоты для сравнения (слева - оригинал, справа - рип)


Максимально динамичная сцена :


В помещении (>90% сериала) :
MediaInfo для 3-й серии
General
Complete name : K:\Pride.and.Prejudice.BDRip\Pride.and.Prejudice.E03.BDRip.h264.DTS.Rus.Sub.mkv
Format : Matroska
File size : 4.37 GiB
Duration : 55mn 0s
Overall bit rate : 11.4 Mbps
Encoded date : UTC 2009-08-06 05:45:09
Writing application : mkvmerge v2.9.7 ('Tenderness') built on Jul 1 2009 18:43:35
Writing library : libebml v0.7.7 + libmatroska v0.8.1

Video
ID : 1
Format : AVC
Format/Info : Advanced Video Codec
Format profile : High@L4.1
Format settings, CABAC : Yes
Format settings, ReFrames : 4 frames
Muxing mode : Container profile=Unknown@4.1
Codec ID : V_MPEG4/ISO/AVC
Duration : 54mn 57s
Bit rate : 9 266 Kbps
Nominal bit rate : 9 493 Kbps
Width : 1 920 pixels
Height : 1 080 pixels
Display aspect ratio : 16/9
Frame rate : 23.976 fps
Resolution : 24 bits
Colorimetry : 4:2:0
Scan type : Progressive
Bits/(Pixel*Frame) : 0.186
Stream size : 3.56 GiB (81%)
Writing library : x264 core 68 r1183M f21daff
Encoding settings : cabac=1 / ref=4 / deblock=1:-1:-1 / analyse=0x3:0x113 / me=tesa / subme=9 / psy_rd=1.0:0.0 / mixed_ref=1 / me_range=32 / chroma_me=1 / trellis=2 / 8x8dct=1 / cqm=0 / deadzone=21,11 / chroma_qp_offset=-2 / threads=6 / nr=0 / decimate=0 / mbaff=0 / bframes=3 / b_pyramid=1 / b_adapt=2 / b_bias=0 / direct=3 / wpredb=1 / keyint=250 / keyint_min=25 / scenecut=40 / rc=2pass / bitrate=9493 / ratetol=1.0 / qcomp=0.60 / qpmin=10 / qpmax=51 / qpstep=4 / cplxblur=20.0 / qblur=0.5 / vbv_maxrate=50000 / vbv_bufsize=50000 / ip_ratio=1.40 / pb_ratio=1.30 / aq=1:1.00
Language : English

Audio #1
ID : 2
Format : AC-3
Format/Info : Audio Coding 3
Codec ID : A_AC3
Duration : 55mn 0s
Bit rate mode : Constant
Bit rate : 384 Kbps
Channel(s) : 6 channels
Channel positions : Front: L C R, Surround: L R, LFE
Sampling rate : 48.0 KHz
Stream size : 151 MiB (3%)
Title : Rus

Audio #2
ID : 3
Format : DTS
Format/Info : Digital Theater Systems
Codec ID : A_DTS
Duration : 55mn 0s
Bit rate mode : Constant
Bit rate : 1 510 Kbps
Channel(s) : 6 channels
Channel positions : Front: L C R, Surround: L R, LFE
Sampling rate : 48.0 KHz
Resolution : 24 bits
Stream size : 594 MiB (13%)
Title : Eng

Text #1
ID : 4
Format : UTF-8
Codec ID : S_TEXT/UTF8
Codec ID/Info : UTF-8 Plain Text
Title : Eng

Text #2
ID : 5
Format : UTF-8
Codec ID : S_TEXT/UTF8
Codec ID/Info : UTF-8 Plain Text
Title : Rus
загрузка...
Правила, инструкции, FAQ!!!
Торрент  Добавлен [25 фев 2014, 22:42] Скачать торрент
Скачать торрент
[ Размер 134.54 КБ / Просмотров 10 ]

Статус  
 
Размер  26.67 ГБ
Приватный: Нет (DHT включён)
.torrent скачан  0
Как залить торрент? | Как скачать Torrent? | Как смотреть и слушать онлайн?  


     Отправить личное сообщение
   
Страница 1 из 1
Показать сообщения за:  Поле сортировки  
Начать новую тему Ответить на тему

   Похожие торренты   Автор   Ответы   Просмотры   Последнее сообщение 
В этой теме нет новых непрочитанных сообщений. Скачать торрент Проверен [iPhone] Гордость и предубеждение / Pride and Prejudice (Саймон Лэнгтон / Simon Langton) [1995 г., Мелодрама / Драма, BDRip-AVC]

в форуме Фильмы для iPod, iPhone, iPad, Размер: 2.47 ГБ, Здоровье: 100%

Гость

0
29|9

57
1

11 май 2015, 01:41

Гость Перейти к последнему сообщению

В этой теме нет новых непрочитанных сообщений. Скачать торрент Гордость и предубеждение / Pride and Prejudice (Саймон Лэнгтон) [1995 г., Мелодрама, DVDRip]

в форуме Триллеры, Размер: 2.72 ГБ, Здоровье: 100%

Anonymous

0
21|7

127
0

01 фев 2014, 19:06

Anonymous Перейти к последнему сообщению

В этой теме нет новых непрочитанных сообщений. Скачать торрент Проверен Гордость и предубеждение / Pride & Prejudice (2005) 1080p BDRip от FREEISLAND

в форуме 720p | 1080p, Размер: 7.61 ГБ, Здоровье: 100%

Гость

0
120|10

108
492

06 янв 2015, 09:42

Гость Перейти к последнему сообщению

В этой теме нет новых непрочитанных сообщений. Скачать торрент Проверен Гордость и предубеждение и зомби / Pride and Prejudice and Zombies (2016) BDRip | D | Лицензия

в форуме Ужасы, Размер: 1.46 ГБ, Здоровье: 100%

Гость

0
3164|556

196
8286

20 май 2016, 22:40

Гость Перейти к последнему сообщению

В этой теме нет новых непрочитанных сообщений. Скачать торрент Проверен Гордость и предубеждение и зомби / Pride and Prejudice and Zombies (2016) BDRip 720p | Лицензия

в форуме 720p | 1080p, Размер: 3.76 ГБ, Здоровье: 100%

Гость

0
167|165

353
141

21 май 2016, 22:41

Гость Перейти к последнему сообщению



Сейчас этот форум просматривают: нет зарегистрированных пользователей и гости: 1


Вы не можете начинать темы
Вы не можете отвечать на сообщения
Вы не можете редактировать свои сообщения
Вы не можете удалять свои сообщения
Вы не можете добавлять вложения

Перейти:  

!ВНИМАНИЕ!
 Ресурс не предоставляет электронные версии произведений, а занимается лишь коллекционированием и каталогизацией ссылок, присылаемых и публикуемых на форуме нашими читателями. Если вы являетесь правообладателем какого-либо представленного материала и не желаете чтобы ссылка на него находилась в нашем каталоге, свяжитесь с нами и мы незамедлительно удалим её. Файлы для обмена на трекере предоставлены пользователями сайта, и администрация не несёт ответственности за их содержание. Просьба не заливать файлы, защищенные авторскими правами, а также файлы нелегального содержания!