На всех торрентах на трекере установлена скидка на скачивание в размере 100 процентов(а).
 Возможность скачивания торрента НЕ зависит от ограничений при низком ратио, низком аплоаде, требуемом ратио или требуемом аплоаде.


Начать новую тему Ответить на тему
Статистика раздачи
Размер: 7.47 ГБ | Добавлен: 25 фев 2014, 22:42 | Скачали: 0
Сидеров: 0  [0 байт/сек]    Личеров: 0  [0 байт/сек]
Пред. тема | След. тема 

Автор
Сообщение

СообщениеДобавлено: 25 фев 2014, 22:42 

Год выпуска: 1998
Страна: / Regency Enterprises
Жанр: Боевик, триллер, драма, криминал, детектив
Продолжительность: 02:19:34
Перевод: Профессиональный (полное дублирование) / Авторский (одноголосый, А. Гаврилов) / Оригинал (Английский)
Русские субтитры: есть
Английские субтитры: есть

«Он зарабатывает на жизнь, освобождая заложников, и берет заложников, чтобы выжить.»


Режиссер: Рон Клементс, Джон Маскер / Ron Clements, John Musker
В ролях: Сэмюэл Л. Джексон, Кевин Спейси, Дэвид Морс, Рон Рифкин, Джон Спенсер, Дж.Т. Уолш, Шаван Фэллон, Пол Джаматти, Реджина Тейлор, Брюс Битти

Описание:
Переговорщик — это полицейский, ведущий переговоры с преступниками или террористами, захватившими заложников. Герой картины Дэнни Роумэн — один из лучших «переговорщиков» в Чикаго. Напарник и близкий друг Роумэна сообщает ему, что в Фонде помощи инвалидам, членом правления которого был Дэнни, расхищают деньги, а он знает, кто за этим стоит. Это Терренс Найбаум из отдела внутренних расследований.

Друг назначил Дэнни встречу в парке, намереваясь сообщить ему полные данные, но, когда Дэнни пришел, тот уже был застрелен. На следующий день к нему с обыском приходит именно Найбаум. У Роумэна находят банковские документы на крупные суммы денег. Его обвиняют в убийстве друга. Понимая, что шансов доказать свою невиновность нет, Роумэн берет Найбаума и еще трех человек в заложники.

Он не может доверять полицейским своего участка, так как знает, что среди них убийцы его напарника, и требует, чтобы в качестве переговорщика был приглашен специалист с другого участка. Сумеет ли Роумэн доказать свою невиновность?

Доп. информация:



Знаете ли вы, что...
Сцены Роумэна и заложников в офисе отдела внутренних расследований были сняты в студии в Лос-Анджелесе. Чтобы смоделировать чикагский горизонт за окном, был создан плакат 48x12 метров, изображающий вид из окон 20-ого этажа здания 77 West Wacker Drive в Чикаго.



Качество: BDRip
Формат: MKV
Видео кодек: H.264
Аудио кодек: AC3
Видео: 1280x534, 23.976 fps, ~6126 kbps
Аудио №1: 48 kHz, AC3 Dolby Digital, 3/2 (L,C,R,l,r) + LFE ch, ~448.00 kbps avg ► Профессиональный (полное дублирование)
Аудио №2: 48 kHz, AC3 Dolby Digital, 3/2 (L,C,R,l,r) + LFE ch, ~448.00 kbps avg ► Авторский (одноголосый, А. Гаврилов)
Аудио №3: 48 kHz, AC3 Dolby Digital, 3/2 (L,C,R,l,r) + LFE ch, ~640.00 kbps avg ► Оригинал (Английский)
Постер [1543×1985]
Трейлер
КиноПоиск.Ru
MediaInfo
General
Complete name : C:\Users\gektor21\Desktop\The.Negotiator.1998.720p.BluRay.x264-HDTracker.mkv
Format : Matroska
File size : 7.47 GiB
Duration : 2h 19mn
Overall bit rate : 7 664 Kbps
Movie name : The Negotiator.1998.-=HDTracker=-
Encoded date : UTC 2009-12-26 18:09:24
Writing application : mkvmerge v2.9.9 ('Tutu') built on Nov 25 2009 21:13:32
Writing library : libebml v0.7.9 + libmatroska v0.8.1

Video
ID : 1
Format : AVC
Format/Info : Advanced Video Codec
Format profile : High@L4.1
Format settings, CABAC : Yes
Format settings, ReFrames : 8 frames
Muxing mode : Container profile=Unknown@4.1
Codec ID : V_MPEG4/ISO/AVC
Duration : 2h 19mn
Bit rate : 5 976 Kbps
Nominal bit rate : 6 126 Kbps
Width : 1 280 pixels
Height : 534 pixels
Display aspect ratio : 2.35:1
Frame rate : 23.976 fps
Resolution : 24 bits
Colorimetry : 4:2:0
Scan type : Progressive
Bits/(Pixel*Frame) : 0.365
Stream size : 5.82 GiB (78%)
Writing library : x264 core 75 r1259M dd026f2
Encoding settings : cabac=1 / ref=8 / deblock=1:-3:-3 / analyse=0x3:0x113 / me=umh / subme=9 / psy=1 / psy_rd=1.0:0.2 / mixed_ref=1 / me_range=24 / chroma_me=1 / trellis=2 / 8x8dct=1 / cqm=0 / deadzone=21,11 / chroma_qp_offset=-3 / threads=6 / nr=0 / decimate=1 / mbaff=0 / bframes=6 / b_pyramid=1 / b_adapt=2 / b_bias=0 / direct=3 / wpredb=1 / keyint=250 / keyint_min=25 / scenecut=40 / rc_lookahead=0 / rc=2pass / mbtree=0 / bitrate=6126 / ratetol=1.0 / qcomp=0.60 / qpmin=10 / qpmax=51 / qpstep=4 / cplxblur=20.0 / qblur=0.5 / vbv_maxrate=50000 / vbv_bufsize=50000 / ip_ratio=1.40 / pb_ratio=1.30 / aq=1:0.70 / pulldown=0 / nal_hrd=0
Language : English

Audio #1
ID : 2
Format : AC-3
Format/Info : Audio Coding 3
Codec ID : A_AC3
Duration : 2h 19mn
Bit rate mode : Constant
Bit rate : 448 Kbps
Channel(s) : 6 channels
Channel positions : Front: L C R, Surround: L R, LFE
Sampling rate : 48.0 KHz
Stream size : 447 MiB (6%)
Title : Dubbed
Language : Russian

Audio #2
ID : 3
Format : AC-3
Format/Info : Audio Coding 3
Codec ID : A_AC3
Duration : 2h 19mn
Bit rate mode : Constant
Bit rate : 448 Kbps
Channel(s) : 6 channels
Channel positions : Front: L C R, Surround: L R, LFE
Sampling rate : 48.0 KHz
Stream size : 447 MiB (6%)
Title : AVO_Gavrilov
Language : Russian

Audio #3
ID : 4
Format : AC-3
Format/Info : Audio Coding 3
Codec ID : A_AC3
Duration : 2h 19mn
Bit rate mode : Constant
Bit rate : 640 Kbps
Channel(s) : 6 channels
Channel positions : Front: L C R, Surround: L R, LFE
Sampling rate : 48.0 KHz
Stream size : 639 MiB (8%)
Language : English

Text #1
ID : 5
Format : UTF-8
Codec ID : S_TEXT/UTF8
Codec ID/Info : UTF-8 Plain Text
Language : Russian

Text #2
ID : 6
Format : UTF-8
Codec ID : S_TEXT/UTF8
Codec ID/Info : UTF-8 Plain Text
Language : English
Сэмпл
Multi-UP.COM
Скриншот с названием
Скриншоты

Полноразмерные скриншоты
загрузка...
Правила, инструкции, FAQ!!!
Торрент  Добавлен [25 фев 2014, 22:42] Скачать торрент
Скачать торрент
[ Размер 37.87 КБ / Просмотров 10 ]

Статус  
 
Размер  7.47 ГБ
Приватный: Нет (DHT включён)
.torrent скачан  0
Как залить торрент? | Как скачать Torrent? | Как смотреть и слушать онлайн?  


     Отправить личное сообщение
   
Страница 1 из 1
Показать сообщения за:  Поле сортировки  
Начать новую тему Ответить на тему

   Похожие торренты   Автор   Ответы   Просмотры   Последнее сообщение 
В этой теме нет новых непрочитанных сообщений. Скачать торрент Одиночка / A Man Apart (Ф. Гэри Грей / F. Gary Gray) [2003 г., боевик, триллер, драма, криминал, HDRip] Dub

в форуме Боевики, Размер: 744.42 МБ, Здоровье: 100%

Anonymous

0
2|1

56
0

26 апр 2014, 20:57

Anonymous Перейти к последнему сообщению

В этой теме нет новых непрочитанных сообщений. Скачать торрент Проверен [iPad] Законопослушный гражданин / Law Abiding Citizen (UNRATED) (Ф. Гэри Грей / F. Gary Gray) [2009, триллер, драма, криминал, BDRip, 720p]

в форуме Фильмы для iPod, iPhone, iPad, Размер: 3.23 ГБ, Здоровье: 100%

Anonymous

0
17|5

43
0

11 май 2015, 01:41

Anonymous Перейти к последнему сообщению

В этой теме нет новых непрочитанных сообщений. Скачать торрент Ограбление по-итальянски / The Italian Job (Ф. Гэри Грей / F. Gary Gray) [2003, США, Франция, Великобритания, боевик, триллер, криминал, BDRip-AVC] Dub + Sub Rus, Eng

в форуме 720p | 1080p, Размер: 744.93 МБ, Здоровье: 0%

Anonymous

0
0|0

33
0

10 фев 2014, 13:06

Anonymous Перейти к последнему сообщению

В этой теме нет новых непрочитанных сообщений. Скачать торрент Законопослушный гражданин / Law Abiding Citizen (Ф. Гэри Грей / F. Gary Gray) [2009, Триллер, драма, криминал, BDRip] [Театральная версия / Theatrical cut] Dub

в форуме Триллеры, Размер: 745.01 МБ, Здоровье: 100%

Anonymous

0
10|3

93
0

12 фев 2014, 11:47

Anonymous Перейти к последнему сообщению

В этой теме нет новых непрочитанных сообщений. Скачать торрент Законопослушный гражданин / Law abiding citizen (Ф. Гэри Грей / F. Gary Gray) [2009, США, триллер, драма, криминал, HDRip] [Unrated director's cut] AVO (Сербин)

в форуме Триллеры, Размер: 1.46 ГБ, Здоровье: 100%

Anonymous

0
56|19

48
0

15 апр 2014, 08:20

Anonymous Перейти к последнему сообщению



Сейчас этот форум просматривают: нет зарегистрированных пользователей и гости: 2


Вы не можете начинать темы
Вы не можете отвечать на сообщения
Вы не можете редактировать свои сообщения
Вы не можете удалять свои сообщения
Вы не можете добавлять вложения

Перейти:  

!ВНИМАНИЕ!
 Ресурс не предоставляет электронные версии произведений, а занимается лишь коллекционированием и каталогизацией ссылок, присылаемых и публикуемых на форуме нашими читателями. Если вы являетесь правообладателем какого-либо представленного материала и не желаете чтобы ссылка на него находилась в нашем каталоге, свяжитесь с нами и мы незамедлительно удалим её. Файлы для обмена на трекере предоставлены пользователями сайта, и администрация не несёт ответственности за их содержание. Просьба не заливать файлы, защищенные авторскими правами, а также файлы нелегального содержания!