На всех торрентах на трекере установлена скидка на скачивание в размере 100 процентов(а).
 Возможность скачивания торрента НЕ зависит от ограничений при низком ратио, низком аплоаде, требуемом ратио или требуемом аплоаде.


Начать новую тему Ответить на тему
Статистика раздачи
Размер: 5.34 ГБ | Добавлен: 25 фев 2014, 22:41 | Скачали: 0
Сидеров: 0  [0 байт/сек]    Личеров: 0  [0 байт/сек]
Пред. тема | След. тема 

Автор
Сообщение

СообщениеДобавлено: 25 фев 2014, 22:41 

Жизненная сила / Lifeforce

Год выпуска: 1985
Страна: Великобритания
Жанр: ужасы, фантастика, триллер
Продолжительность: 01:56:09
Перевод1: Авторский (одноголосый закадровый)(Гаврилов)
Перевод2: Авторский (одноголосый закадровый)(Визгунов)
Перевод3: Профессиональный (многоголосый закадровый)
Субтитры: английские
Оригинальная аудиодорожка: Английский
Режиссер: Тоуб Хупер / Tobe Hooper

В ролях:
Стив Рэйлсбэк / Steve Railsback /, Питер Ферт / Peter Firth /, Матильда Мэй / Mathilda May /, Фрэнк Финлэй / Frank Finlay /, Майкл Готард / Michael Gothard /, Патрик Стюарт / Patrick Stewart /

Описание: Космическая экспедиция исследует комету Галлея и натыкается на новую форму разумной жизни - нечто вроди космических вампиров, вместо крови черпающих энергию из своих жертв. Забрав этих чудовищ в образах очень красивой обнаженной женщины и двух мужчин на борт, космонавты совершили страшную ошибку. Мало того, что все они, кроме Рэйлсбэка погибли, вампиры проникли на Землю, где начали массовую заготовку жизенной силы, забирая ее у людей, превращавшихся в нечто вроде зомби. Все это напоминает конец света.
Снято очень добротно с обилием спец. эффектов. Есть укороченный вариант в 1. 40. Жутковатая смесь фантастики с ужасами, сдобренная эротикой. (Иванов М.)

Дополнительная информация:
Награды и номинации:
• 1985 - Sitges - Catalonian International Film Festival (Испания) - Приз за "Лучшие спецэффекты".
• 1986 - Academy of Science Fiction, Fantasy & Horror Films (США) - Номинации в категориях "Лучший фильм ужасов" и "Лучшие спецэффекты







Качество: HDTVRip 720p (Mirmekiy)
Формат: MKV
Видео кодек: H.264
Аудио кодек: AC3
Видео: 1280 x 544; 23,976 fps; 5300 Kbps
Аудио1: Русский, AC3 5.1 384 Kbps 48,0 КГц(Гаврилов)
Аудио2: Русский, AC3 5.1 384 Kbps 48,0 КГц(Визгунов)
Аудио3: Русский, AC3 1.0 128 Kbps 48,0 КГц(Многоголосый)
Аудио4: English, AC3 2.0 384 Kbps 48,0 КГц(Оригинал)
Субтитры: softsub (SRT)
MediaInfo
G:\HDFILMS\Lifeforce.1985.720p.HDTVRip.3xRus.Eng.mkv
General
Complete name : G:\HDFILMS\Lifeforce.1985.720p.HDTVRip.3xRus.Eng.mkv
Format : Matroska
File size : 5.34 GiB
Duration : 1h 56mn
Overall bit rate : 6 582 Kbps
Encoded date : UTC 2010-10-24 20:18:50
Writing application : mkvmerge v2.9.8 ('C'est le bon') built on Aug 13 2009 12:49:06
Writing library : libebml v0.7.7 + libmatroska v0.8.1
Video #1
ID : 1
Format : AVC
Format/Info : Advanced Video Codec
Format profile : High@L4.0
Format settings, CABAC : Yes
Format settings, ReFrames : 6 frames
Muxing mode : Container profile=Unknown@4.0
Codec ID : V_MPEG4/ISO/AVC
Duration : 1h 56mn
Bit rate : 5 300 Kbps
Width : 1 280 pixels
Height : 544 pixels
Display aspect ratio : 2.35:1
Frame rate : 23.976 fps
Color space : YUV
Chroma subsampling : 4:2:0
Bit depth : 8 bits
Scan type : Progressive
Bits/(Pixel*Frame) : 0.317
Stream size : 4.20 GiB (79%)
Writing library : x264 core 66 r1092 60f4cd8
Encoding settings : cabac=1 / ref=6 / deblock=1:-1:-1 / analyse=0x3:0x113 / me=umh / subme=7 / psy_rd=1.0:1.0 / mixed_ref=1 / me_range=16 / chroma_me=1 / trellis=2 / 8x8dct=1 / cqm=0 / deadzone=21,11 / chroma_qp_offset=-4 / threads=3 / nr=0 / decimate=1 / mbaff=0 / bframes=6 / b_pyramid=1 / b_adapt=2 / b_bias=0 / direct=3 / wpredb=1 / keyint=250 / keyint_min=25 / scenecut=40(pre) / rc=2pass / bitrate=5300 / ratetol=1.0 / qcomp=0.60 / qpmin=10 / qpmax=51 / qpstep=4 / cplxblur=20.0 / qblur=0.5 / vbv_maxrate=25000 / vbv_bufsize=14000 / ip_ratio=1.40 / pb_ratio=1.30 / aq=1:1.00
Language : English
Audio #2
ID : 2
Format : AC-3
Format/Info : Audio Coding 3
Mode extension : CM (complete main)
Codec ID : A_AC3
Duration : 1h 56mn
Bit rate mode : Constant
Bit rate : 384 Kbps
Channel(s) : 6 channels
Channel positions : Front: L C R, Side: L R, LFE
Sampling rate : 48.0 KHz
Bit depth : 16 bits
Stream size : 319 MiB (6%)
Title : Gavrilov AC3 5.1 384 kbps
Language : Russian
Audio #3
ID : 3
Format : AC-3
Format/Info : Audio Coding 3
Mode extension : CM (complete main)
Codec ID : A_AC3
Duration : 1h 56mn
Bit rate mode : Constant
Bit rate : 384 Kbps
Channel(s) : 6 channels
Channel positions : Front: L C R, Side: L R, LFE
Sampling rate : 48.0 KHz
Bit depth : 16 bits
Stream size : 319 MiB (6%)
Title : Vizgunov AC3 5.1 384 kbps
Language : Russian
Audio #4
ID : 4
Format : AC-3
Format/Info : Audio Coding 3
Mode extension : CM (complete main)
Codec ID : A_AC3
Duration : 1h 56mn
Bit rate mode : Constant
Bit rate : 128 Kbps
Channel(s) : 1 channel
Channel positions : Front: C
Sampling rate : 48.0 KHz
Bit depth : 16 bits
Stream size : 106 MiB (2%)
Title : MVO AC3 1.0 128 kbps
Language : Russian
Audio #5
ID : 5
Format : AC-3
Format/Info : Audio Coding 3
Format profile : Dolby Digital
Mode extension : CM (complete main)
Codec ID : A_AC3
Duration : 1h 56mn
Bit rate mode : Constant
Bit rate : 384 Kbps
Channel(s) : 2 channels
Channel positions : Front: L R
Sampling rate : 48.0 KHz
Bit depth : 16 bits
Stream size : 319 MiB (6%)
Title : Original AC3 2.0 384 kbps
Language : English
Text #6
ID : 6
Format : UTF-8
Codec ID : S_TEXT/UTF8
Codec ID/Info : UTF-8 Plain Text
Language : English
Скриншоты

загрузка...
Правила, инструкции, FAQ!!!
Торрент  Добавлен [25 фев 2014, 22:41] Скачать торрент
Скачать торрент
[ Размер 27.22 КБ / Просмотров 7 ]

Статус  
 
Размер  5.34 ГБ
Приватный: Нет (DHT включён)
.torrent скачан  0
Как залить торрент? | Как скачать Torrent? | Как смотреть и слушать онлайн?  


     Отправить личное сообщение
   
Страница 1 из 1
Показать сообщения за:  Поле сортировки  
Начать новую тему Ответить на тему

   Похожие торренты   Автор   Ответы   Просмотры   Последнее сообщение 
В этой теме нет новых непрочитанных сообщений. Скачать торрент Проверен Кей Хупер/Kay Hooper - Собрание сочинений [1984-2010, FB2, RTF, RUS]

в форуме Детективы и Боевики, Размер: 24.35 МБ, Здоровье: 0%

Anonymous

0
0|0

6
0

08 сен 2016, 21:33

Anonymous Перейти к последнему сообщению

В этой теме нет новых непрочитанных сообщений. Скачать торрент Проверен Thomas Hooper / Томас Хупер - Book of Lines / Книга линий [2009, pdf, ENG]

в форуме Рисунок, графический дизайн, Размер: 101.63 МБ, Здоровье: 100%

Anonymous

0
167|6

103
7

27 янв 2016, 22:14

Anonymous Перейти к последнему сообщению

В этой теме нет новых непрочитанных сообщений. Скачать торрент Король говорит! / The King's Speech (Том Хупер / Tom Hooper) [2010, драма, история, биография, BDRip-AVC]

в форуме Драмы, Мелодрамы, Размер: 2.91 ГБ, Здоровье: 0%

Anonymous

0
0|0

57
0

02 апр 2014, 12:05

Anonymous Перейти к последнему сообщению

В этой теме нет новых непрочитанных сообщений. Скачать торрент Король говорит! / The King's Speech (Том Хупер / Tom Hooper) [2010, США, Великобритания, драма, биография, история, HDRip-AVC] Dub

в форуме Драмы, Мелодрамы, Размер: 745.1 МБ, Здоровье: 100%

Anonymous

0
57|19

30
1

16 апр 2014, 07:49

Anonymous Перейти к последнему сообщению

В этой теме нет новых непрочитанных сообщений. Скачать торрент Любовь в холодном климате / Love in a cold climate (Том Хупер / Tom Hooper) [2001, Великобритания, Драма, экранизация, DVDRip] Sub Rus + Original Eng

в форуме Драмы, Мелодрамы, Размер: 1.87 ГБ, Здоровье: 100%

Anonymous

0
28|10

303
3

03 фев 2014, 12:30

Anonymous Перейти к последнему сообщению



Сейчас этот форум просматривают: нет зарегистрированных пользователей и гости: 1


Вы не можете начинать темы
Вы не можете отвечать на сообщения
Вы не можете редактировать свои сообщения
Вы не можете удалять свои сообщения
Вы не можете добавлять вложения

Перейти:  

!ВНИМАНИЕ!
 Ресурс не предоставляет электронные версии произведений, а занимается лишь коллекционированием и каталогизацией ссылок, присылаемых и публикуемых на форуме нашими читателями. Если вы являетесь правообладателем какого-либо представленного материала и не желаете чтобы ссылка на него находилась в нашем каталоге, свяжитесь с нами и мы незамедлительно удалим её. Файлы для обмена на трекере предоставлены пользователями сайта, и администрация не несёт ответственности за их содержание. Просьба не заливать файлы, защищенные авторскими правами, а также файлы нелегального содержания!