На всех торрентах на трекере установлена скидка на скачивание в размере 100 процентов(а).
 Возможность скачивания торрента НЕ зависит от ограничений при низком ратио, низком аплоаде, требуемом ратио или требуемом аплоаде.


Начать новую тему Ответить на тему
Статистика раздачи
Размер: 18.52 ГБ | Добавлен: 25 фев 2014, 22:40 | Скачали: 0
Сидеров: 0  [0 байт/сек]    Личеров: 0  [0 байт/сек]
Пред. тема | След. тема 

Автор
Сообщение

СообщениеДобавлено: 25 фев 2014, 22:40 

Народ против Ларри Флинта / The People vs. Larry Flyn


Страна: США
Жанр: драма, биография
Год выпуска: 1996
Продолжительность: 02:09:28
Перевод: Профессиональный (дублированный) |Дубляж| + Профессиональный (многоголосый закадровый) |ОРТ|+ Профессиональный (многоголосый закадровый) |R5| + Профессиональный (двухголосый закадровый) + Авторский (одноголосый закадровый) |Сербин| + Профессиональный (многоголосый закадровый) |Новый канал|
Cубтитры: русские, английские
Оригинальная аудиодорожка: английский
Режиссер: Милош Форман / Milos Forman
В ролях: Вуди Харрельсон, Кортни Лав, Эдвард Нортон, Бретт Харрельсон, Донна Хэновер, Джеймс Кромуэлл, Криспин Гловер, Винсент Скьявелли, Майлз Чэпин, Джеймс Карвилл
Описание: Ларри Флинт - герой семидесятых, эпохи сексуальной революции, наркотиков и культурных катаклизмов. Он видел - людям нужно нечто большее, чем ТВ и пикники по уик-эндам. Им нужны зрелища.

Обладая завидной интуицией он решил сделать шаг, который навсегда изменил его жизнь и разделил общество на тех, кто был за и против него. Он стал издавать порножурнал. Но «Hustler» стал не просто журналом. Это был вызов обществу. И оскорбленное общество решило наказать Ларри Флинта.



Сохранены оригинальные чаптеры как на Blu-ray.

Дорожки № 5,6 получены наложением чистого голоса на центр декодированного DTS-HD

За дорожку №2 большое спасибо Stuey

За дорожку №6 большое спасибо Прагматик-у

Тип релиза: BDRip 1080p [The People vs. Larry Flynt 1996 1080p Blu-ray AVC DTS-HD-DON]
Контейнер: MKV

Видео: 1920x800 at 23.976 fps, x264, ~15000 kbps avg
Аудио #1: 48 kHz, AC3, 3/2 (L,C,R,l,r) + LFE ch, ~384.00 kbps avg |Дубляж|
Аудио #2: 48 kHz, AC3, 2/0 (L,R) ch, ~192.00 kbps avg |Многоголосый закадровый, ОРТ|
Аудио #3: 48 kHz, AC3, 2/0 (L,R) ch, ~192.00 kbps avg |Многоголосый закадровый, R5|
Аудио #4: 48 kHz, AC3, 2/0 (L,R) ch, ~192.00 kbps avg |Двухголосый закадровый|
Аудио #5: 48 kHz, DTS, 3/2 (L,C,R,l,r) + LFE ch, ~1536.00 kbps avg |Одноголосый закадровый, Сербин|
Аудио #6: 48 kHz, DTS, 3/2 (L,C,R,l,r) + LFE ch, ~1536.00 kbps avg |Многоголосый закадровый, Новый канал|
Аудио #7: 48 kHz, DTS, 3/2 (L,C,R,l,r) + LFE ch, ~1536.00 kbps avg
РАЗДАЧА ОТ:
Скриншоты:
MediaInfo
General
Unique ID : 236338864097607132044742613502810022884 (0xB1CD35A455C96D7EA9E797040F1663E4)
Complete name : The.People.vs.Larry.Flynt.1996.1080p.BluRay.Rus.Eng.HDCLUB.mkv
Format : Matroska
File size : 18.5 GiB
Duration : 2h 9mn
Overall bit rate : 20.5 Mbps
Encoded date : UTC 2011-06-13 09:15:38
Writing application : mkvmerge v4.8.0 ('I Got The...') сборка от May 24 2011 03:12:58
Writing library : libebml v1.2.0 + libmatroska v1.1.0

Video
ID : 1
Format : AVC
Format/Info : Advanced Video Codec
Format profile : High@L4.1
Format settings, CABAC : Yes
Format settings, ReFrames : 4 frames
Format settings, GOP : M=1, N=16
Muxing mode : Header stripping
Codec ID : V_MPEG4/ISO/AVC
Duration : 2h 9mn
Bit rate : 15.0 Mbps
Width : 1 920 pixels
Height : 800 pixels
Display aspect ratio : 2.40:1
Frame rate : 23.976 fps
Color space : YUV
Chroma subsampling : 4:2:0
Bit depth : 8 bits
Scan type : Progressive
Bits/(Pixel*Frame) : 0.407
Stream size : 13.2 GiB (71%)
Writing library : x264 core 114 r1900 60ef1f8
Encoding settings : cabac=1 / ref=4 / deblock=1:-3:-3 / analyse=0x3:0x113 / me=umh / subme=9 / psy=1 / psy_rd=1.00:0.00 / mixed_ref=1 / me_range=32 / chroma_me=1 / trellis=1 / 8x8dct=1 / cqm=0 / deadzone=21,11 / fast_pskip=0 / chroma_qp_offset=-2 / threads=9 / sliced_threads=0 / nr=0 / decimate=0 / interlaced=0 / constrained_intra=0 / bframes=6 / b_pyramid=2 / b_adapt=2 / b_bias=0 / direct=1 / weightb=1 / open_gop=0 / weightp=2 / keyint=250 / keyint_min=23 / scenecut=40 / intra_refresh=0 / rc_lookahead=40 / rc=2pass / mbtree=1 / bitrate=15000 / ratetol=1.0 / qcomp=0.60 / qpmin=0 / qpmax=69 / qpstep=4 / cplxblur=20.0 / qblur=0.5 / ip_ratio=1.40 / aq=1:0.80
Language : English

Audio #1
ID : 2
Format : AC-3
Format/Info : Audio Coding 3
Mode extension : CM (complete main)
Muxing mode : Header stripping
Codec ID : A_AC3
Duration : 2h 9mn
Bit rate mode : Constant
Bit rate : 384 Kbps
Channel(s) : 6 channels
Channel positions : Front: L C R, Side: L R, LFE
Sampling rate : 48.0 KHz
Bit depth : 16 bits
Compression mode : Lossy
Stream size : 356 MiB (2%)
Title : DUB
Language : Russian

Audio #2
ID : 3
Format : AC-3
Format/Info : Audio Coding 3
Mode extension : CM (complete main)
Muxing mode : Header stripping
Codec ID : A_AC3
Duration : 2h 9mn
Bit rate mode : Constant
Bit rate : 192 Kbps
Channel(s) : 2 channels
Channel positions : Front: L R
Sampling rate : 48.0 KHz
Bit depth : 16 bits
Compression mode : Lossy
Stream size : 178 MiB (1%)
Title : ORT
Language : Russian

Audio #3
ID : 4
Format : AC-3
Format/Info : Audio Coding 3
Mode extension : CM (complete main)
Muxing mode : Header stripping
Codec ID : A_AC3
Duration : 2h 9mn
Bit rate mode : Constant
Bit rate : 192 Kbps
Channel(s) : 2 channels
Channel positions : Front: L R
Sampling rate : 48.0 KHz
Bit depth : 16 bits
Compression mode : Lossy
Stream size : 178 MiB (1%)
Title : R5
Language : Russian

Audio #4
ID : 5
Format : AC-3
Format/Info : Audio Coding 3
Mode extension : CM (complete main)
Muxing mode : Header stripping
Codec ID : A_AC3
Duration : 2h 9mn
Bit rate mode : Constant
Bit rate : 192 Kbps
Channel(s) : 2 channels
Channel positions : Front: L R
Sampling rate : 48.0 KHz
Bit depth : 16 bits
Compression mode : Lossy
Stream size : 178 MiB (1%)
Title : 2GOLOS
Language : Russian

Audio #5
ID : 6
Format : DTS
Format/Info : Digital Theater Systems
Muxing mode : Header stripping
Codec ID : A_DTS
Duration : 2h 9mn
Bit rate mode : Constant
Bit rate : 1 510 Kbps
Channel(s) : 6 channels
Channel positions : Front: L C R, Side: L R, LFE
Sampling rate : 48.0 KHz
Bit depth : 24 bits
Compression mode : Lossy
Stream size : 1.37 GiB (7%)
Title : Serbin
Language : Russian

Audio #6
ID : 7
Format : DTS
Format/Info : Digital Theater Systems
Muxing mode : Header stripping
Codec ID : A_DTS
Duration : 2h 9mn
Bit rate mode : Constant
Bit rate : 1 510 Kbps
Channel(s) : 6 channels
Channel positions : Front: L C R, Side: L R, LFE
Sampling rate : 48.0 KHz
Bit depth : 24 bits
Compression mode : Lossy
Stream size : 1.37 GiB (7%)
Title : UKR
Language : Ukrainian

Audio #7
ID : 8
Format : DTS
Format/Info : Digital Theater Systems
Muxing mode : Header stripping
Codec ID : A_DTS
Duration : 2h 9mn
Bit rate mode : Constant
Bit rate : 1 510 Kbps
Channel(s) : 6 channels
Channel positions : Front: L C R, Side: L R, LFE
Sampling rate : 48.0 KHz
Bit depth : 24 bits
Compression mode : Lossy
Delay relative to video : 11ms
Stream size : 1.37 GiB (7%)
Language : English

Text #1
ID : 9
Format : UTF-8
Codec ID : S_TEXT/UTF8
Codec ID/Info : UTF-8 Plain Text
Language : Russian

Text #2
ID : 10
Format : UTF-8
Codec ID : S_TEXT/UTF8
Codec ID/Info : UTF-8 Plain Text
Language : English

Menu
00:00:00.000 : en:00:00:00.000
00:08:45.984 : en:00:08:45.984
00:21:27.578 : en:00:21:27.578
00:26:17.034 : en:00:26:17.034
00:32:55.807 : en:00:32:55.807
00:40:26.007 : en:00:40:26.007
00:50:00.164 : en:00:50:00.164
00:56:08.240 : en:00:56:08.240
01:02:37.671 : en:01:02:37.671
01:09:47.266 : en:01:09:47.266
01:16:25.915 : en:01:16:25.915
01:21:24.254 : en:01:21:24.254
01:30:10.572 : en:01:30:10.572
01:37:44.942 : en:01:37:44.942
01:47:06.837 : en:01:47:06.837
01:54:47.547 : en:01:54:47.547
загрузка...
Правила, инструкции, FAQ!!!
Торрент  Добавлен [25 фев 2014, 22:40] Скачать торрент
Скачать торрент
[ Размер 93.13 КБ / Просмотров 4 ]

Статус  
 
Размер  18.52 ГБ
Приватный: Нет (DHT включён)
.torrent скачан  0
Как залить торрент? | Как скачать Torrent? | Как смотреть и слушать онлайн?  


     Отправить личное сообщение
   
Страница 1 из 1
Показать сообщения за:  Поле сортировки  
Начать новую тему Ответить на тему

   Похожие торренты   Автор   Ответы   Просмотры   Последнее сообщение 
В этой теме нет новых непрочитанных сообщений. Скачать торрент Народ против Ларри Флинта / The People vs. Larry Flynt (Милош Форман / Milos Forman) [1996 г., драма, биография, BDRemux 1080p] Dub

в форуме 720p | 1080p, Размер: 20.72 ГБ, Здоровье: 0%

Anonymous

0
0|0

26
0

25 фев 2014, 22:40

Anonymous Перейти к последнему сообщению

В этой теме нет новых непрочитанных сообщений. Скачать торрент Призраки Гойи / Goya's Ghosts (Милош Форман / Milos Forman) [2006, США, Испания, драма, биография, HDRip] Dub + AVO [А. Гаврилов] + AVO [А. Алексеев] + Original Eng Sub rus

в форуме Драмы, Мелодрамы, Размер: 2.89 ГБ, Здоровье: 100%

Anonymous

0
11|5

31
1

13 фев 2014, 06:31

Anonymous Перейти к последнему сообщению

В этой теме нет новых непрочитанных сообщений. Скачать торрент Проверен [iPad] Пролетая над гнездом кукушки / One Flew Over the Cuckoo's Nest (Милош Форман / Milos Forman ) [1975, США, Драма, BDRip, SD (576p)] DUB + Original + sub (rus, eng)

в форуме Фильмы для iPod, iPhone, iPad, Размер: 2.31 ГБ, Здоровье: 100%

Гость

0
56|19

19
0

12 май 2015, 00:14

Гость Перейти к последнему сообщению

В этой теме нет новых непрочитанных сообщений. Скачать торрент Проверен [iPhone] Амадей / Amadeus (Милош Форман) [1984 г., Драма, музыка, DVDRip]

в форуме Фильмы для iPod, iPhone, iPad, Размер: 1.08 ГБ, Здоровье: 100%

Гость

0
9|3

38
0

14 май 2015, 00:19

Гость Перейти к последнему сообщению

В этой теме нет новых непрочитанных сообщений. Скачать торрент Проверен Милош Урбан / Milos Urban - Семь храмов / Sedmikosteli [2005, fb2, rtf]

в форуме Детективы и Боевики, Размер: 2.36 МБ, Здоровье: 100%

Anonymous

0
3|1

4
0

08 сен 2016, 20:59

Anonymous Перейти к последнему сообщению



Сейчас этот форум просматривают: нет зарегистрированных пользователей и гости: 1


Вы не можете начинать темы
Вы не можете отвечать на сообщения
Вы не можете редактировать свои сообщения
Вы не можете удалять свои сообщения
Вы не можете добавлять вложения

Перейти:  

!ВНИМАНИЕ!
 Ресурс не предоставляет электронные версии произведений, а занимается лишь коллекционированием и каталогизацией ссылок, присылаемых и публикуемых на форуме нашими читателями. Если вы являетесь правообладателем какого-либо представленного материала и не желаете чтобы ссылка на него находилась в нашем каталоге, свяжитесь с нами и мы незамедлительно удалим её. Файлы для обмена на трекере предоставлены пользователями сайта, и администрация не несёт ответственности за их содержание. Просьба не заливать файлы, защищенные авторскими правами, а также файлы нелегального содержания!