На всех торрентах на трекере установлена скидка на скачивание в размере 100 процентов(а).
 Возможность скачивания торрента НЕ зависит от ограничений при низком ратио, низком аплоаде, требуемом ратио или требуемом аплоаде.


Начать новую тему Ответить на тему
Статистика раздачи
Размер: 4.72 ГБ | Добавлен: 25 фев 2014, 22:39 | Скачали: 0
Сидеров: 0  [0 байт/сек]    Личеров: 0  [0 байт/сек]
Пред. тема | След. тема 

Автор
Сообщение

СообщениеДобавлено: 25 фев 2014, 22:39 

Отголоски прошлого / Little Ashes

Год выпуска: 2008
Страна: Великобритания / Испания
Жанр: Драма, биография
Продолжительность: 01:52:02
Перевод: Профессиональный (многоголосый, закадровый)
Русские субтитры: есть

Режиссер: Пол Моррисон / Paul Morrison

В ролях: Роберт Паттинсон, Хавьер Белтран, Мэттью МакНалти, Марина Гэтелл, Адриа Аллю, Симон Андреу, Рубен Арройо, Ферран Ауди, Адриан Девант, Рамон Энрич Борреллас

Описание: В разгар репрессий и политических волнений в преддверии испанской гражданской войны, эксцентричный художник Сальвадор Дали (Роб Паттисон) и известный поэт и революционнер Федерико Гарсия Лорка (Хавьер Белтрана) нашли друг друга в понимании творческой и сексуальной свободы. Эти два вида свобод обусловили их ожесточенные амбиции, борьбу между любовью к Испании и любовью друг к другу...

Релиз:

Качество: BDRip
Формат: MKV
Видео кодек: H.264
Аудио кодек: DTS
Видео: MPEG-4 AVC, 4077 Кбит/с, 1280х720, 23.976 кадр/с
Аудио: Русский (AC3, 6 ch, 448 Кбит/с), английский (DTS, 6 ch, 1536 Кбит/с) всё 48.0 KHz
Скриншоты
MI
Format : Matroska
File size : 4.72 GiB
Duration : 1h 52mn
Overall bit rate : 6 037 Kbps
Movie name : kinozal.tv-HD
Encoded date : UTC 2010-04-14 20:04:25
Writing application : mkvmerge v3.1.0 ('Happy up here') built on Jan 19 2010 12:09:24
Writing library : libebml v0.7.9 + libmatroska v0.8.1

Video
ID : 1
Format : AVC
Format/Info : Advanced Video Codec
Format profile : High@L4.1
Format settings, CABAC : Yes
Format settings, ReFrames : 5 frames
Muxing mode : Container profile=Unknown@4.1
Codec ID : V_MPEG4/ISO/AVC
Duration : 1h 51mn
Bit rate : 3 959 Kbps
Nominal bit rate : 4 077 Kbps
Width : 1 280 pixels
Height : 720 pixels
Display aspect ratio : 16:9
Frame rate : 23.976 fps
Resolution : 24 bits
Colorimetry : 4:2:0
Scan type : Progressive
Bits/(Pixel*Frame) : 0.179
Stream size : 3.10 GiB (66%)
Writing library : x264 core 93 r1538 bd72d46
Encoding settings : cabac=1 / ref=5 / deblock=1:0:0 / analyse=0x3:0x133 / me=umh / subme=7 / psy=1 / psy_rd=1.00:0.00 / mixed_ref=1 / me_range=16 / chroma_me=1 / trellis=1 / 8x8dct=1 / cqm=0 / deadzone=21,11 / fast_pskip=0 / chroma_qp_offset=-2 / threads=12 / sliced_threads=0 / nr=0 / decimate=1 / interlaced=0 / constrained_intra=0 / bframes=3 / b_pyramid=2 / b_adapt=1 / b_bias=0 / direct=1 / wpredb=1 / wpredp=2 / keyint=250 / keyint_min=25 / scenecut=40 / intra_refresh=0 / rc_lookahead=40 / rc=2pass / mbtree=1 / bitrate=4077 / ratetol=1.0 / qcomp=0.60 / qpmin=10 / qpmax=51 / qpstep=4 / cplxblur=20.0 / qblur=0.5 / ip_ratio=1.40 / aq=1:1.00
Language : English

Audio #1
ID : 2
Format : AC-3
Format/Info : Audio Coding 3
Codec ID : A_AC3
Duration : 1h 52mn
Bit rate mode : Constant
Bit rate : 448 Kbps
Channel(s) : 6 channels
Channel positions : Front: L C R, Surround: L R, LFE
Sampling rate : 48.0 KHz
Video delay : 650ms
Stream size : 359 MiB (7%)
Title : MVO
Language : Russian

Audio #2
ID : 3
Format : DTS
Format/Info : Digital Theater Systems
Codec ID : A_DTS
Duration : 1h 52mn
Bit rate mode : Constant
Bit rate : 1 510 Kbps
Channel(s) : 6 channels
Channel positions : Front: L C R, Surround: L R, LFE
Sampling rate : 48.0 KHz
Resolution : 16 bits
Stream size : 1.18 GiB (25%)
Language : English
загрузка...
Правила, инструкции, FAQ!!!
Торрент  Добавлен [25 фев 2014, 22:39] Скачать торрент
Скачать торрент
[ Размер 24.27 КБ / Просмотров 2 ]

Статус  
 
Размер  4.72 ГБ
Приватный: Нет (DHT включён)
.torrent скачан  0
Как залить торрент? | Как скачать Torrent? | Как смотреть и слушать онлайн?  


     Отправить личное сообщение
   
Страница 1 из 1
Показать сообщения за:  Поле сортировки  
Начать новую тему Ответить на тему

   Похожие торренты   Автор   Ответы   Просмотры   Последнее сообщение 
В этой теме нет новых непрочитанных сообщений. Скачать торрент Проверен Поддубный (Глеб Орлов) [2012, Россия, драма, спорт, биография, BDRip 720p]

в форуме Наше кино (HD Video), Размер: 5.35 ГБ, Здоровье: 100%

Anonymous

0
56|19

34
0

12 апр 2015, 15:02

Anonymous Перейти к последнему сообщению

В этой теме нет новых непрочитанных сообщений. Скачать торрент Проверен Ярослав. Тысячу лет назад (Дмитрий Коробкин) [2010, Россия, Боевик, Биография, Драма, BDRip 720p]

в форуме Наше кино (HD Video), Размер: 6.31 ГБ, Здоровье: 100%

Гость

0
12|4

26
1

12 апр 2015, 11:06

Гость Перейти к последнему сообщению

В этой теме нет новых непрочитанных сообщений. Скачать торрент Во имя отца / In the Name of the Father (Джим Шеридан / Jim Sheridan) [1993, Ирландия, Великобритания, драма, биография, BDRip 720p]

в форуме 720p | 1080p, Размер: 9.63 ГБ, Здоровье: 100%

Anonymous

0
12|4

74
0

25 фев 2014, 22:42

Anonymous Перейти к последнему сообщению

В этой теме нет новых непрочитанных сообщений. Скачать торрент Проверен Распутин (Жозе Дойанн, Ираклий Квирикадзе) [2013, Россия, драма, биография, история, BDRip 720p]

в форуме Наше кино (HD Video), Размер: 2.92 ГБ, Здоровье: 100%

Anonymous

0
56|19

35
0

12 апр 2015, 15:01

Anonymous Перейти к последнему сообщению

В этой теме нет новых непрочитанных сообщений. Скачать торрент Проверен [iPad] Переступить черту / Walk the Line (Джеймс Мэнголд / James Mangold) [ 2005, драма, мелодрама, биография, BDRip, 720p]

в форуме Фильмы для iPod, iPhone, iPad, Размер: 3.57 ГБ, Здоровье: 100%

Гость

0
19|5

40
1

12 май 2015, 00:06

Гость Перейти к последнему сообщению



Сейчас этот форум просматривают: нет зарегистрированных пользователей и гости: 2


Вы не можете начинать темы
Вы не можете отвечать на сообщения
Вы не можете редактировать свои сообщения
Вы не можете удалять свои сообщения
Вы не можете добавлять вложения

Перейти:  

!ВНИМАНИЕ!
 Ресурс не предоставляет электронные версии произведений, а занимается лишь коллекционированием и каталогизацией ссылок, присылаемых и публикуемых на форуме нашими читателями. Если вы являетесь правообладателем какого-либо представленного материала и не желаете чтобы ссылка на него находилась в нашем каталоге, свяжитесь с нами и мы незамедлительно удалим её. Файлы для обмена на трекере предоставлены пользователями сайта, и администрация не несёт ответственности за их содержание. Просьба не заливать файлы, защищенные авторскими правами, а также файлы нелегального содержания!