На всех торрентах на трекере установлена скидка на скачивание в размере 100 процентов(а).
 Возможность скачивания торрента НЕ зависит от ограничений при низком ратио, низком аплоаде, требуемом ратио или требуемом аплоаде.


Начать новую тему Ответить на тему
Статистика раздачи
Размер: 15.39 ГБ | Добавлен: 25 фев 2014, 22:39 | Скачали: 0
Сидеров: 0  [0 байт/сек]    Личеров: 0  [0 байт/сек]
Пред. тема | След. тема 

Автор
Сообщение

СообщениеДобавлено: 25 фев 2014, 22:39 

Год выпуска: 1998
Страна: США
Студия: Touchstone Pictures, Wildwood Enterprises
Жанр: драма, мелодрама, вестерн
Продолжительность: 02:49:16

Перевод 1: Профессиональный (многоголосый закадровый) (Видеосервис, Первый канал)
Перевод 2: Профессиональный (двухголосый закадровый) (НТВ+)
Перевод 3: Авторский (одноголосый закадровый) (Ю.Живов)
Cубтитры: русские, английские
Оригинальная аудиодорожка: английский

Режиссер: Роберт Редфорд / Robert Redford

В ролях: Роберт Редфорд, Кристин Скотт Томас, Скарлетт Йоханссон, Сэм Нил, Дайэнн Уист, Крис Купер, Черри Джонс, Ти Хиллман, Кейт Босворт, Остин Шварц

Описание: Самое страшное испытание для любой матери - несчастье с ее ребенком. Энни Маклин убедилась в этом на собственном опыте. Во время верховой прогулки серьезно пострадала ее дочь. Энни бессильна помочь несчастной девочке и в отчаянии увозит ее из шумного города на Дикий Запад, прочь от суеты и печальных воспоминаний.

Мать и дочь не подозревают, что здесь они встретят человека, которому под силу изменить их судьбу. Том Букер - укротитель лошадей, обладающий таинственной властью над животными. И его глубокий дар способен исцелять душевные раны.

Доп. информация:



- Детям до 13 лет просмотр не желателен

Релиз: by dsk71
Дополнительно
Цитата:
    Сохранены оригинальные чаптеры, как на Blu-ray.
    Дорожка №1,2 получены наложением чистого голоса на центр декодированного DTS-HD MA.
    За выкуп Видеосервиса большое спасибо: Loki1982, dsk71.
  • За чистку чистого голоса Видеосервиса от фоновых шумов спасибо Devlad-у.


Тип релиза: BDRip 720p [Рип от EbP!]
Контейнер: MKV
Источник: The Horse Whisperer 1998 1080p Blu-ray AVC DTS-HD MA 5.1 CHDBits
Видео: MPEG-4 AVC, 1280x546 (2.35:1), at 23.976 fps, ~7852 kbps avg, High Profile 4.1
Аудио 1: DTS, 48 kHz, 3/2 (L,C,R,l,r) + LFE ch, ~1536 kbps avg [Russian] |Многоголосый закадровый, Видеосервис|
Аудио 2: AC3, 48 kHz, 2/0 (L,R) ch, ~192.00 kbps avg [Russian] |Многоголосый закадровый, Первый канал|
Аудио 3: AC3, 48 kHz, 3/2 (L,C,R,l,r) + LFE ch, ~448.00 kbps avg [Russian] |Двухголосый закадровый, НТВ+|
Аудио 4: DTS, 48 kHz, 3/2 (L,C,R,l,r) + LFE ch, ~1536 kbps avg [Russian] |Одноголосый закадровый, Ю.Живов|
Аудио 5: DTS, 48 kHz/24-bit, 3/2 (L,C,R,l,r) + LFE ch, ~1536.00 kbps avg [English]
Формат субтитров: softsub (SRT) Russian, English (SDH)
MediaInfo
Код:
Код:
General
Unique ID                                : 200343847726312046951164188684726287793 (0x96B8D2512A594CBE92A516F3E27BBDB1)
Complete name                            : The.Horse.Whisperer.1998.720p.BluRay.4xRus.Eng.HDCLUB.mkv
Format                                   : Matroska
Format version                           : Version 2
File size                                : 15.4 GiB
Duration                                 : 2h 49mn
Overall bit rate                         : 13.0 Mbps
Movie name                               : The Horse Whisperer (1998) - Release for HDCLUB
Encoded date                             : UTC 2012-07-14 15:51:52
Writing application                      : mkvmerge v5.7.0 ('The Whirlwind') built on Jul  8 2012 20:08:51
Writing library                          : libebml v1.2.3 + libmatroska v1.3.0

Video
ID                                       : 1
Format                                   : AVC
Format/Info                              : Advanced Video Codec
Format profile                           : High@L4.1
Format settings, CABAC                   : Yes
Format settings, ReFrames                : 12 frames
Codec ID                                 : V_MPEG4/ISO/AVC
Duration                                 : 2h 49mn
Bit rate                                 : 7 852 Kbps
Width                                    : 1 280 pixels
Height                                   : 546 pixels
Display aspect ratio                     : 2.35:1
Frame rate                               : 23.976 fps
Color space                              : YUV
Chroma subsampling                       : 4:2:0
Bit depth                                : 8 bits
Scan type                                : Progressive
Bits/(Pixel*Frame)                       : 0.469
Stream size                              : 8.98 GiB (58%)
Title                                    : The Horse Whisperer (1998) - Release for HDCLUB
Writing library                          : x264 core 125 r2200 999b753
Encoding settings                        : cabac=1 / ref=12 / deblock=1:-3:-3 / analyse=0x3:0x133 / me=umh / subme=9 / psy=1 / psy_rd=1.20:0.13 / mixed_ref=1 / me_range=16 / chroma_me=1 / trellis=2 / 8x8dct=1 / cqm=0 / deadzone=21,11 / fast_pskip=0 / chroma_qp_offset=-3 / threads=12 / lookahead_threads=2 / sliced_threads=0 / nr=0 / decimate=0 / interlaced=0 / bluray_compat=0 / constrained_intra=0 / bframes=8 / b_pyramid=2 / b_adapt=2 / b_bias=0 / direct=3 / weightb=1 / open_gop=0 / weightp=2 / keyint=250 / keyint_min=23 / scenecut=40 / intra_refresh=0 / rc=2pass / mbtree=0 / bitrate=7852 / ratetol=1.0 / qcomp=0.40 / qpmin=0 / qpmax=51 / qpstep=4 / cplxblur=20.0 / qblur=0.5 / ip_ratio=1.40 / pb_ratio=1.30 / aq=1:0.95
Language                                 : English
Default                                  : Yes
Forced                                   : No
Matrix coefficients                      : BT.709-5, BT.1361, IEC 61966-2-4 709, SMPTE RP177

Audio #1
ID                                       : 2
Format                                   : DTS
Format/Info                              : Digital Theater Systems
Codec ID                                 : A_DTS
Duration                                 : 2h 49mn
Bit rate mode                            : Constant
Bit rate                                 : 1 510 Kbps
Channel(s)                               : 6 channels
Channel positions                        : Front: L C R, Side: L R, LFE
Sampling rate                            : 48.0 KHz
Bit depth                                : 24 bits
Compression mode                         : Lossy
Stream size                              : 1.79 GiB (12%)
Title                                    : DTS 5.1 @ 1536 kbps - Многоголосый, Видеосервис
Language                                 : Russian
Default                                  : Yes
Forced                                   : No

Audio #2
ID                                       : 3
Format                                   : AC-3
Format/Info                              : Audio Coding 3
Format profile                           : Dolby Digital
Mode extension                           : CM (complete main)
Codec ID                                 : A_AC3
Duration                                 : 2h 49mn
Bit rate mode                            : Constant
Bit rate                                 : 192 Kbps
Channel(s)                               : 2 channels
Channel positions                        : Front: L R
Sampling rate                            : 48.0 KHz
Bit depth                                : 16 bits
Compression mode                         : Lossy
Stream size                              : 232 MiB (1%)
Title                                    : AC3 2.0 @ 192 kbps - Многоголосый, Первый канал
Language                                 : Russian
Default                                  : No
Forced                                   : No

Audio #3
ID                                       : 4
Format                                   : AC-3
Format/Info                              : Audio Coding 3
Mode extension                           : CM (complete main)
Codec ID                                 : A_AC3
Duration                                 : 2h 49mn
Bit rate mode                            : Constant
Bit rate                                 : 448 Kbps
Channel(s)                               : 6 channels
Channel positions                        : Front: L C R, Side: L R, LFE
Sampling rate                            : 48.0 KHz
Bit depth                                : 16 bits
Compression mode                         : Lossy
Stream size                              : 542 MiB (3%)
Title                                    : AC3 5.1 @ 448 kbps - Двухголосый, НТВ+
Language                                 : Russian
Default                                  : No
Forced                                   : No

Audio #4
ID                                       : 5
Format                                   : DTS
Format/Info                              : Digital Theater Systems
Codec ID                                 : A_DTS
Duration                                 : 2h 49mn
Bit rate mode                            : Constant
Bit rate                                 : 1 510 Kbps
Channel(s)                               : 6 channels
Channel positions                        : Front: L C R, Side: L R, LFE
Sampling rate                            : 48.0 KHz
Bit depth                                : 24 bits
Compression mode                         : Lossy
Stream size                              : 1.79 GiB (12%)
Title                                    : DTS 5.1 @ 1536 kbps - Одноголосый, Ю.Живов
Language                                 : Russian
Default                                  : No
Forced                                   : No

Audio #5
ID                                       : 6
Format                                   : DTS
Format/Info                              : Digital Theater Systems
Codec ID                                 : A_DTS
Duration                                 : 2h 49mn
Bit rate mode                            : Constant
Bit rate                                 : 1 510 Kbps
Channel(s)                               : 6 channels
Channel positions                        : Front: L C R, Side: L R, LFE
Sampling rate                            : 48.0 KHz
Bit depth                                : 24 bits
Compression mode                         : Lossy
Stream size                              : 1.79 GiB (12%)
Title                                    : DTS 5.1 @ 1536 kbps
Language                                 : English
Default                                  : No
Forced                                   : No

Text #1
ID                                       : 7
Format                                   : UTF-8
Codec ID                                 : S_TEXT/UTF8
Codec ID/Info                            : UTF-8 Plain Text
Title                                    : Full
Language                                 : Russian
Default                                  : No
Forced                                   : No

Text #2
ID                                       : 8
Format                                   : UTF-8
Codec ID                                 : S_TEXT/UTF8
Codec ID/Info                            : UTF-8 Plain Text
Title                                    : SDH
Language                                 : English
Default                                  : No
Forced                                   : No

Menu
00:00:00.000                             : en:Chapter 1
00:07:33.161                             : en:Chapter 2
00:11:54.588                             : en:Chapter 3
00:21:21.321                             : en:Chapter 4
00:35:42.557                             : en:Chapter 5
00:41:47.129                             : en:Chapter 6
00:45:11.875                             : en:Chapter 7
00:51:43.850                             : en:Chapter 8
00:56:12.118                             : en:Chapter 9
00:58:07.901                             : en:Chapter 10
01:02:58.941                             : en:Chapter 11
01:20:36.832                             : en:Chapter 12
01:26:43.406                             : en:Chapter 13
01:31:36.199                             : en:Chapter 14
01:43:04.344                             : en:Chapter 15
01:52:30.493                             : en:Chapter 16
01:54:12.679                             : en:Chapter 17
02:08:01.006                             : en:Chapter 18
02:17:06.843                             : en:Chapter 19
02:19:40.789                             : en:Chapter 20
02:39:27.015                             : en:Chapter 21
02:42:46.590                             : en:Chapter 22

Скриншоты
Source..........vs..........Encode






загрузка...
Правила, инструкции, FAQ!!!
Торрент  Добавлен [25 фев 2014, 22:39] Скачать торрент
Скачать торрент
[ Размер 39.11 КБ / Просмотров 14 ]

Статус  
 
Размер  15.39 ГБ
Приватный: Нет (DHT включён)
.torrent скачан  0
Как залить торрент? | Как скачать Torrent? | Как смотреть и слушать онлайн?  


     Отправить личное сообщение
   
Страница 1 из 1
Показать сообщения за:  Поле сортировки  
Начать новую тему Ответить на тему

   Похожие торренты   Автор   Ответы   Просмотры   Последнее сообщение 
В этой теме нет новых непрочитанных сообщений. Скачать торрент Заговорщица / The Conspirator (Роберт Редфорд / Robert Redford) [2010, США, драма, криминал, история, BDRip-AVC] MVO + AVO (Ю.Сербин) + Original (Eng) + Sub (Rus, Eng)

в форуме Драмы, Мелодрамы, Размер: 4.69 ГБ, Здоровье: 100%

Anonymous

0
1|1

30
0

01 апр 2014, 09:37

Anonymous Перейти к последнему сообщению

В этой теме нет новых непрочитанных сообщений. Скачать торрент Львы для ягнят / Lions for Lambs (Роберт Редфорд / Robert Redford) [2007, США, драма, военный, BDRip 1080p] DUB Sub rus + original eng

в форуме 720p | 1080p, Размер: 8.14 ГБ, Здоровье: 0%

Anonymous

0
0|0

28
0

25 фев 2014, 22:39

Anonymous Перейти к последнему сообщению

В этой теме нет новых непрочитанных сообщений. Скачать торрент Гитара / The Guitar (Эми Редфорд / Amy Redford) [2008, США, мелодрама, драма, музыка, DVDRip] AVO (© acolith)

в форуме Драмы, Мелодрамы, Размер: 1.46 ГБ, Здоровье: 0%

Anonymous

0
0|0

36
0

14 фев 2014, 07:46

Anonymous Перейти к последнему сообщению

В этой теме нет новых непрочитанных сообщений. Скачать торрент Проверен [iPad] Как трусливый Роберт Форд убил Джесси Джеймса / The Assassination of Jesse James by the Coward Robert Ford (Эндрю Доминик / Andrew Dominik) [2007 г., драма, криминал, вестерн, биография, история, BDRip 720p]

в форуме Фильмы для iPod, iPhone, iPad, Размер: 3.89 ГБ, Здоровье: 100%

Гость

0
14|5

36
0

14 май 2015, 00:18

Гость Перейти к последнему сообщению

В этой теме нет новых непрочитанных сообщений. Скачать торрент Как трусливый Роберт Форд убил Джесси Джеймса / The Assassination of Jesse James by the Coward Robert Ford (Эндрю Доминик / Andrew Dominik) [2007 г., драма, криминал, вестерн, BDRip] MVO (Киномания)

в форуме Драмы, Мелодрамы, Размер: 1.46 ГБ, Здоровье: 0%

Anonymous

0
0|0

42
0

12 фев 2014, 08:18

Anonymous Перейти к последнему сообщению



Сейчас этот форум просматривают: нет зарегистрированных пользователей и гости: 1


Вы не можете начинать темы
Вы не можете отвечать на сообщения
Вы не можете редактировать свои сообщения
Вы не можете удалять свои сообщения
Вы не можете добавлять вложения

Перейти:  

!ВНИМАНИЕ!
 Ресурс не предоставляет электронные версии произведений, а занимается лишь коллекционированием и каталогизацией ссылок, присылаемых и публикуемых на форуме нашими читателями. Если вы являетесь правообладателем какого-либо представленного материала и не желаете чтобы ссылка на него находилась в нашем каталоге, свяжитесь с нами и мы незамедлительно удалим её. Файлы для обмена на трекере предоставлены пользователями сайта, и администрация не несёт ответственности за их содержание. Просьба не заливать файлы, защищенные авторскими правами, а также файлы нелегального содержания!