На всех торрентах на трекере установлена скидка на скачивание в размере 100 процентов(а).
 Возможность скачивания торрента НЕ зависит от ограничений при низком ратио, низком аплоаде, требуемом ратио или требуемом аплоаде.


Начать новую тему Ответить на тему
Статистика раздачи
Размер: 6.97 ГБ | Добавлен: 25 фев 2014, 22:39 | Скачали: 0
Сидеров: 0  [0 байт/сек]    Личеров: 0  [0 байт/сек]
Пред. тема | След. тема 

Автор
Сообщение

СообщениеДобавлено: 25 фев 2014, 22:39 

Власть страха / The Bone Collector
«Serial killer vs. forensic genius»
Год выпуска: 1999
Выпущено: США / Columbia Pictures Corporation / Universal Pictures
Жанр: триллер, драма, криминал, детектив
Продолжительность: 01:57:56
Перевод: Дублированный + Профессиональный (многоголосый) + Авторский (С.Визгунов, А.Гаврилов) + Английский (оригинал)
Режиссер: Филлип Нойс / Phillip Noyce
В ролях: Дензел Вашингтон, Анджелина Джоли, Куин Латифа, Майкл Рукер, Майк МакГлоун, Луис Гузман, Лиленд Орсер, Джон Бенжамин Хикки, Бобби Каннавале, Эд О’Нил
Сюжет: Линкольн Райм — знаменитый криминалист, автор множества книг, навсегда прикованный к больничной постели. Амелия Донаги — начинающий полицейский, делающий первые неуверенные шаги по кровавым мостовым. Когда в городе появляется страшный маньяк, она становится глазами и ушами Райма на обезумевших от ужаса улицах.
С ее помощью гений криминалистики пытается разгадать тайный шифр, скрытый в непредсказуемых убийствах. Но Линкольн не подозревает, что в дьявольской книге, которую маньяк пишет кровью своих жертв, место главного героя отведено именно ему, и этот роман смерти уже подходит к страшному эпилогу…

IMDB / КиноПоиск / by Proxx

Качество видео: BDRip 720p
Формат: MKV
Видео кодек: H.264
Аудио кодек: AC3 / DTS
Видео: H.264, 1280 x 532, 23.976 fps, ~4029 Кбит/с
Аудио #1: AC3, 640 Кбит/с, 48 kHz (6 ch) Russian / Дубляж, Blu-ray CEE
Аудио #2: AC3, 384 Кбит/с, 48 kHz (6 ch) Russian R5 / Многоголосый
Аудио #3: DTS, 1536 Кбит/с, 48 kHz (6 ch) Russian / С.Визгунов
Аудио #4: AC3, 384 Кбит/с, 48 kHz (6 ch) Russian / А.Гаврилов
Аудио #5: DTS, 1536 Кбит/с, 48 kHz (6 ch) English
Cубтитры: Русские, Английские
Навигация: -/-
Доп. информация
[quote]- Дорожка #3, получена наложением чистого голоса на центр декодированного TrueHD.
Скриншоты / BDRip 720p (old) => BDRip 720p (HDCLUB)



MediaInfo
Код:
Код:
General
Unique ID                        : 219641078321793680023700859149476856376 (0xA53D553DE5FCD2F3A6200FFA66228238)
Complete name                    : D:\VIDEO\The.Bone.Collector.1999.720p.BluRay.4xRus.Eng.HDCLUB.mkv
Format                           : Matroska
File size                        : 6.97 GiB
Duration                         : 1h 57mn
Overall bit rate                 : 8 460 Kbps
Movie name                       : The Bone Collector (1999) -  Release for HDCLUB
Encoded date                     : UTC 2010-01-23 20:22:13
Writing application              : mkvmerge v3.0.0 ('Hang up your Hang-Ups') built on Dec 12 2009 15:20:35
Writing library                  : libebml v0.7.9 + libmatroska v0.8.1

Video
ID                               : 1
Format                           : AVC
Format/Info                      : Advanced Video Codec
Format profile                   : High@L4.1
Format settings, CABAC           : Yes
Format settings, ReFrames        : 8 frames
Codec ID                         : V_MPEG4/ISO/AVC
Duration                         : 1h 57mn
Bit rate                         : 4 029 Kbps
Width                            : 1 280 pixels
Height                           : 532 pixels
Display aspect ratio             : 2.40:1
Frame rate                       : 23.976 fps
Color space                      : YUV
Chroma subsampling               : 4:2:0
Bit depth                        : 8 bits
Scan type                        : Progressive
Bits/(Pixel*Frame)               : 0.247
Stream size                      : 3.18 GiB (46%)
Title                            : Release for HDCLUB
Writing library                  : x264 core 80 r1373M 4322f63
Encoding settings                : cabac=1 / ref=8 / deblock=1:-3:-3 / analyse=0x3:0x113 / me=umh / subme=9 / psy=1 / psy_rd=1.0:0.0 / mixed_ref=1 / me_range=32 / chroma_me=1 / trellis=2 / 8x8dct=1 / cqm=0 / deadzone=21,11 / fast_pskip=0 / chroma_qp_offset=-2 / threads=12 / sliced_threads=0 / nr=0 / decimate=0 / mbaff=0 / constrained_intra=0 / bframes=6 / b_pyramid=2 / b_adapt=2 / b_bias=0 / direct=3 / wpredb=1 / wpredp=2 / keyint=240 / keyint_min=24 / scenecut=40 / rc=2pass / mbtree=0 / bitrate=4029 / ratetol=1.0 / qcomp=0.60 / qpmin=10 / qpmax=51 / qpstep=4 / cplxblur=20.0 / qblur=0.5 / ip_ratio=1.40 / pb_ratio=1.30 / aq=1:0.80
Language                         : English

Audio #1
ID                               : 2
Format                           : AC-3
Format/Info                      : Audio Coding 3
Mode extension                   : CM (complete main)
Codec ID                         : A_AC3
Duration                         : 1h 57mn
Bit rate mode                    : Constant
Bit rate                         : 640 Kbps
Channel(s)                       : 6 channels
Channel positions                : Front: L C R, Side: L R, LFE
Sampling rate                    : 48.0 KHz
Bit depth                        : 16 bits
Compression mode                 : Lossy
Stream size                      : 540 MiB (8%)
Title                            : АС3 5.1. 640 kbps Дубляж  - Blu-Ray CEE #1
Language                         : Russian

Audio #2
ID                               : 3
Format                           : AC-3
Format/Info                      : Audio Coding 3
Mode extension                   : CM (complete main)
Codec ID                         : A_AC3
Duration                         : 1h 57mn
Bit rate mode                    : Constant
Bit rate                         : 384 Kbps
Channel(s)                       : 6 channels
Channel positions                : Front: L C R, Side: L R, LFE
Sampling rate                    : 48.0 KHz
Bit depth                        : 16 bits
Compression mode                 : Lossy
Stream size                      : 324 MiB (5%)
Title                            : АС3 5.1. 384 kbps Многоголосый закадровый  - Лицензия R5 #2
Language                         : Russian

Audio #3
ID                               : 4
Format                           : DTS
Format/Info                      : Digital Theater Systems
Codec ID                         : A_DTS
Duration                         : 1h 57mn
Bit rate mode                    : Constant
Bit rate                         : 1 510 Kbps
Channel(s)                       : 6 channels
Channel positions                : Front: L C R, Side: L R, LFE
Sampling rate                    : 48.0 KHz
Bit depth                        : 16 bits
Compression mode                 : Lossy
Stream size                      : 1.24 GiB (18%)
Title                            : DTS 5.1 1536 kbps Одноголосый закадровый - С.Визгунов #3
Language                         : Russian

Audio #4
ID                               : 5
Format                           : AC-3
Format/Info                      : Audio Coding 3
Mode extension                   : CM (complete main)
Codec ID                         : A_AC3
Duration                         : 1h 57mn
Bit rate mode                    : Constant
Bit rate                         : 384 Kbps
Channel(s)                       : 6 channels
Channel positions                : Front: L C R, Side: L R, LFE
Sampling rate                    : 48.0 KHz
Bit depth                        : 16 bits
Compression mode                 : Lossy
Stream size                      : 324 MiB (5%)
Title                            : АС3 5.1. 384 kbps Одноголосый закадровый  - А.Гаврилов #4
Language                         : Russian

Audio #5
ID                               : 6
Format                           : DTS
Format/Info                      : Digital Theater Systems
Codec ID                         : A_DTS
Duration                         : 1h 57mn
Bit rate mode                    : Constant
Bit rate                         : 1 510 Kbps
Channel(s)                       : 6 channels
Channel positions                : Front: L C R, Side: L R, LFE
Sampling rate                    : 48.0 KHz
Bit depth                        : 16 bits
Compression mode                 : Lossy
Stream size                      : 1.24 GiB (18%)
Title                            : DTS 5.1 1536 kbps Original track #5
Language                         : English

Text #1
ID                               : 7
Format                           : UTF-8
Codec ID                         : S_TEXT/UTF8
Codec ID/Info                    : UTF-8 Plain Text
Language                         : Russian

Text #2
ID                               : 8
Format                           : UTF-8
Codec ID                         : S_TEXT/UTF8
Codec ID/Info                    : UTF-8 Plain Text
Language                         : English
загрузка...
Правила, инструкции, FAQ!!!
Торрент  Добавлен [25 фев 2014, 22:39] Скачать торрент
Скачать торрент
[ Размер 35.37 КБ / Просмотров 6 ]

Статус  
 
Размер  6.97 ГБ
Приватный: Нет (DHT включён)
.torrent скачан  0
Как залить торрент? | Как скачать Torrent? | Как смотреть и слушать онлайн?  


     Отправить личное сообщение
   
Страница 1 из 1
Показать сообщения за:  Поле сортировки  
Начать новую тему Ответить на тему

   Похожие торренты   Автор   Ответы   Просмотры   Последнее сообщение 
В этой теме нет новых непрочитанных сообщений. Скачать торрент Власть страха / The Bone Collector (1999) BDRip-AVC | D

в форуме 720p | 1080p, Размер: 1.49 ГБ, Здоровье: 0%

Anonymous

0
0|0

30
0

23 фев 2014, 15:43

Anonymous Перейти к последнему сообщению

В этой теме нет новых непрочитанных сообщений. Скачать торрент Проверен [iPad] Револьвер / Revolver (Гай Ричи) [2005 г., триллер, драма, криминал, детектив, BDRip 720p]

в форуме Фильмы для iPod, iPhone, iPad, Размер: 2.48 ГБ, Здоровье: 100%

Гость

0
56|19

40
0

12 май 2015, 00:06

Гость Перейти к последнему сообщению

В этой теме нет новых непрочитанных сообщений. Скачать торрент Переговорщик / The Negotiator (Ф. Гэри Грей / F. Gary Gray) [1998 г., Боевик, триллер, драма, криминал, детектив, BDRip 720p / DVD9]

в форуме 720p | 1080p, Размер: 7.47 ГБ, Здоровье: 0%

Anonymous

0
0|0

56
0

25 фев 2014, 22:42

Anonymous Перейти к последнему сообщению

В этой теме нет новых непрочитанных сообщений. Скачать торрент Бойцовский клуб / Fight Club (Дэвид Финчер / David Fincher) [1999, США, Германия, триллер, драма, криминал, детектив, BDRip-AVC] Dub + Original + Sub (rus, eng)

в форуме Триллеры, Размер: 2.94 ГБ, Здоровье: 100%

Anonymous

0
58|20

103
0

01 фев 2014, 19:06

Anonymous Перейти к последнему сообщению

В этой теме нет новых непрочитанных сообщений. Скачать торрент Шерлок Холмс / Sherlock Holmes (Гай Ричи / Guy Ritchie) [2009 г., Боевик, триллер, комедия, драма, приключения, криминал, детектив, BDRip-AVC]

в форуме 720p | 1080p, Размер: 1.64 ГБ, Здоровье: 100%

Anonymous

0
34|11

78
0

17 фев 2014, 11:44

Anonymous Перейти к последнему сообщению



Сейчас этот форум просматривают: нет зарегистрированных пользователей и гости: 1


Вы не можете начинать темы
Вы не можете отвечать на сообщения
Вы не можете редактировать свои сообщения
Вы не можете удалять свои сообщения
Вы не можете добавлять вложения

Перейти:  

!ВНИМАНИЕ!
 Ресурс не предоставляет электронные версии произведений, а занимается лишь коллекционированием и каталогизацией ссылок, присылаемых и публикуемых на форуме нашими читателями. Если вы являетесь правообладателем какого-либо представленного материала и не желаете чтобы ссылка на него находилась в нашем каталоге, свяжитесь с нами и мы незамедлительно удалим её. Файлы для обмена на трекере предоставлены пользователями сайта, и администрация не несёт ответственности за их содержание. Просьба не заливать файлы, защищенные авторскими правами, а также файлы нелегального содержания!
cron