На всех торрентах на трекере установлена скидка на скачивание в размере 100 процентов(а).
 Возможность скачивания торрента НЕ зависит от ограничений при низком ратио, низком аплоаде, требуемом ратио или требуемом аплоаде.


Начать новую тему Ответить на тему
Статистика раздачи
Размер: 6.68 ГБ | Добавлен: 25 фев 2014, 22:39 | Скачали: 0
Сидеров: 0  [0 байт/сек]    Личеров: 0  [0 байт/сек]
Пред. тема | След. тема 

Автор
Сообщение

СообщениеДобавлено: 25 фев 2014, 22:39 

Цыплёнок с черносливом / Poulet aux prunes / Chicken with plums

Страна: Франция, Германия, Бельгия
Жанр: драма
Год выпуска: 2011
Продолжительность: 01:31:41

Перевод: Одноголосый закадровый (студия "Райдо" (Сергей Калугин) по субтитрам Elesa)
Cубтитры: русские, французские (форсированные)
Оригинальная аудиодорожка: французский

Режиссер: Венсан Паронно / Vincent Paronnaud, Маржан Сатрапи / Marjane Satrapi

В ролях: Матье Амальрик, Эдуард Баэр, Мария ди Медейруш, Голшифте Фарахани, Эрик Каравака, Кьяра Мастроянни, Дидье Фламан, Серж Аведикян

Описание: Жена во время ссоры разбивает любимую скрипку главного героя, талантливого музыканта. Так как игра на других скрипках больше не приносит Нассеру Али ни радости, ни удовольствия, он решает умереть. В течение недели лёжа в постели и дожидаясь смерти, он погружается в воспоминания о прошлом, которые возвращают его во времена молодости, и размышления о своей жизни и будущем своих детей. Он также встречается с Азраилом, ангелом смерти. С развитием истории события, как кусочки пазла, собираются воедино, и нам открывается истинная причина его решения свести счеты с жизнью.





За субтитры и описание спасибо elesks
За русскую дорожку спасибо europamusic

Сэмпл: http://multi-up.com/696714

Тип релиза: BDRip 1080p (Poulet.Aux.Prunes.2011.FRENCH.1080p.BluRay.x264-LOST)
Контейнер: MKV

Видео: H.264, 1920x800 (2,40:1), L4.1, 23.976fps, 8727kbps, 0.237bit/pixel
Аудио 1: AC3, 48000Hz, 2ch, 192kbps (рус.)
Аудио 2: DTS, 48000Hz, 6ch, 24bit, 1510kbps (ориг.)
Формат субтитров: softsub (SRT)

Торрент перезалит 03.05.12 в связи с добавлением русской озвучки.
MediaInfo
Общее
Уникальный идентификатор : 242010661477352310899543617395074264046 (0xB6118ED7C74FB3BB8AB24939510BEBEE)
Полное имя : W:\work\Цыпленок с черносливом (Poulet Aux Prunes) (1080p).mkv
Формат : Matroska
Версия формата : Version 2
Размер файла : 6,68 Гбайт
Продолжительность : 1 ч. 31 м.
Общий поток : 10,4 Мбит/сек
Дата кодирования : UTC 2012-05-02 20:14:48
Программа кодирования : mkvmerge v5.5.0 ('Healer') built on Apr 24 2012 23:47:03
Библиотека кодирования : libebml v1.2.3 + libmatroska v1.3.0

Видео
Идентификатор : 1
Формат : AVC
Формат/Информация : Advanced Video Codec
Профиль формата : High@L4.1
Параметр CABAC формата : Да
Параметр ReFrames формата : 5 кадров
Идентификатор кодека : V_MPEG4/ISO/AVC
Продолжительность : 1 ч. 31 м.
Битрейт : 8727 Кбит/сек
Ширина : 1920 пикселей
Высота : 800 пикселей
Соотношение сторон : 2,40:1
Частота кадров : 23,976 кадра/сек
Цветовое пространство : YUV
Субдискретизация насыщенности : 4:2:0
Битовая глубина : 8 бит
Тип развёртки : Прогрессивная
Бит/(Пиксели*Кадры) : 0.237
Размер потока : 5,46 Гбайт (82%)
Библиотека кодирования : x264 core 119 r2106 07efeb4
Настройки программы : cabac=1 / ref=5 / deblock=1:0:0 / analyse=0x3:0x113 / me=umh / subme=7 / psy=1 / psy_rd=1.00:0.15 / mixed_ref=1 / me_range=16 / chroma_me=1 / trellis=1 / 8x8dct=1 / cqm=0 / deadzone=21,11 / fast_pskip=0 / chroma_qp_offset=-3 / threads=12 / sliced_threads=0 / nr=0 / decimate=1 / interlaced=0 / bluray_compat=0 / constrained_intra=0 / bframes=3 / b_pyramid=2 / b_adapt=1 / b_bias=0 / direct=1 / weightb=1 / open_gop=0 / weightp=2 / keyint=250 / keyint_min=23 / scenecut=40 / intra_refresh=0 / rc_lookahead=40 / rc=2pass / mbtree=1 / bitrate=8727 / ratetol=1.0 / qcomp=0.60 / qpmin=0 / qpmax=69 / qpstep=4 / cplxblur=20.0 / qblur=0.5 / ip_ratio=1.40 / aq=1:1.00
Язык : French
Default : Да
Forced : Нет

Аудио #1
Идентификатор : 2
Формат : AC-3
Формат/Информация : Audio Coding 3
Расширение режима : CM (complete main)
Параметр Endianness формата : Big
Идентификатор кодека : A_AC3
Продолжительность : 1 ч. 31 м.
Вид битрейта : Постоянный
Битрейт : 192 Кбит/сек
Каналы : 2 канала
Расположение каналов : Front: L R
Частота : 48,0 КГц
Битовая глубина : 16 бит
Метод сжатия : С потерями
Размер потока : 126 Мбайт (2%)
Заголовок : студия "Райдо" / Сергей Калугин
Язык : Russian
Default : Да
Forced : Нет

Аудио #2
Идентификатор : 3
Формат : DTS
Формат/Информация : Digital Theater Systems
Идентификатор кодека : A_DTS
Продолжительность : 1 ч. 31 м.
Вид битрейта : Постоянный
Битрейт : 1510 Кбит/сек
Каналы : 6 каналов
Расположение каналов : Front: L C R, Side: L R, LFE
Частота : 48,0 КГц
Битовая глубина : 24 бит
Метод сжатия : С потерями
Размер потока : 990 Мбайт (14%)
Заголовок : French DTS 1509kbps
Язык : French
Default : Нет
Forced : Нет

Текст #1
Идентификатор : 4
Формат : UTF-8
Идентификатор кодека : S_TEXT/UTF8
Идентификатор кодека/Информация : UTF-8 Plain Text
Заголовок : Russian_Elesa
Язык : Russian
Default : Нет
Forced : Нет

Текст #2
Идентификатор : 5
Формат : UTF-8
Идентификатор кодека : S_TEXT/UTF8
Идентификатор кодека/Информация : UTF-8 Plain Text
Заголовок : French_forced
Язык : French
Default : Нет
Forced : Нет

Меню
00:00:00.000 : en:00:00:00.000
00:04:42.157 : en:00:04:42.157
00:13:00.446 : en:00:13:00.446
00:16:45.796 : en:00:16:45.796
00:23:55.225 : en:00:23:55.225
00:30:35.292 : en:00:30:35.292
00:34:56.803 : en:00:34:56.803
00:38:16.377 : en:00:38:16.377
00:43:38.282 : en:00:43:38.282
00:46:25.574 : en:00:46:25.574
00:52:55.964 : en:00:52:55.964
01:01:51.458 : en:01:01:51.458
01:08:03.371 : en:01:08:03.371
01:13:03.629 : en:01:13:03.629
01:18:32.625 : en:01:18:32.625
01:26:11.333 : en:01:26:11.333
Скриншоты
Скриншоты с субтитрами
загрузка...
Правила, инструкции, FAQ!!!
Торрент  Добавлен [25 фев 2014, 22:39] Скачать торрент
Скачать торрент
[ Размер 33.92 КБ / Просмотров 17 ]

Статус  
 
Размер  6.68 ГБ
Приватный: Нет (DHT включён)
.torrent скачан  0
Как залить торрент? | Как скачать Torrent? | Как смотреть и слушать онлайн?  


     Отправить личное сообщение
   
Страница 1 из 1
Показать сообщения за:  Поле сортировки  
Начать новую тему Ответить на тему

   Похожие торренты   Автор   Ответы   Просмотры   Последнее сообщение 
В этой теме нет новых непрочитанных сообщений. Скачать торрент Цыпленок с черносливом / Poulet aux prunes (2011) HDRip | P

в форуме Драмы, Мелодрамы, Размер: 1.47 ГБ, Здоровье: 0%

Anonymous

0
0|0

28
0

25 фев 2014, 22:55

Anonymous Перейти к последнему сообщению

В этой теме нет новых непрочитанных сообщений. Скачать торрент Счастливого Рождества / Joyeux Noël / Joyeux Noel / Merry Christmas (Кристиан Карион / Christian Carion) [2005, Германия, Франция, Великобритания, Норвегия, Бельгия, Румыния, драма, мелодрама, военный, музыка, BDRip] MVO

в форуме Драмы, Мелодрамы, Размер: 1.45 ГБ, Здоровье: 0%

Anonymous

0
0|0

77
0

10 фев 2014, 13:03

Anonymous Перейти к последнему сообщению

В этой теме нет новых непрочитанных сообщений. Скачать торрент Проверен [iPad] Два дня в Нью-Йорке / 2 Days in New York (Жюли Дельпи/ Julie Delpy) [2012, Франция, Германия, Бельгия, Комедия, BDRip, 576p] MVO + Original + eng sub

в форуме Фильмы для iPod, iPhone, iPad, Размер: 1.65 ГБ, Здоровье: 100%

Anonymous

0
8|2

45
0

18 май 2015, 10:49

Anonymous Перейти к последнему сообщению

В этой теме нет новых непрочитанных сообщений. Скачать торрент Как все / Comme les autres / Baby Love (Венсан Гаренк / Vincent Garenq) [2008, Франция, Романтическая комедия, Гей-тема, DVDRip]

в форуме Комедии, Размер: 736.23 МБ, Здоровье: 100%

Anonymous

0
5|1

49
0

02 апр 2014, 08:25

Anonymous Перейти к последнему сообщению

В этой теме нет новых непрочитанных сообщений. Скачать торрент Проверен Секса много не бывает / Un heureux événement [2011, Франция, Бельгия, драма, комедия, HDRip] MVO (Лицензия)

в форуме Драмы, Мелодрамы, Размер: 1.46 ГБ, Здоровье: 100%

Anonymous

0
74|11

118
6

06 авг 2015, 21:53

Anonymous Перейти к последнему сообщению



Сейчас этот форум просматривают: нет зарегистрированных пользователей и гости: 2


Вы не можете начинать темы
Вы не можете отвечать на сообщения
Вы не можете редактировать свои сообщения
Вы не можете удалять свои сообщения
Вы не можете добавлять вложения

Перейти:  

!ВНИМАНИЕ!
 Ресурс не предоставляет электронные версии произведений, а занимается лишь коллекционированием и каталогизацией ссылок, присылаемых и публикуемых на форуме нашими читателями. Если вы являетесь правообладателем какого-либо представленного материала и не желаете чтобы ссылка на него находилась в нашем каталоге, свяжитесь с нами и мы незамедлительно удалим её. Файлы для обмена на трекере предоставлены пользователями сайта, и администрация не несёт ответственности за их содержание. Просьба не заливать файлы, защищенные авторскими правами, а также файлы нелегального содержания!