На всех торрентах на трекере установлена скидка на скачивание в размере 100 процентов(а).
 Возможность скачивания торрента НЕ зависит от ограничений при низком ратио, низком аплоаде, требуемом ратио или требуемом аплоаде.


Начать новую тему Ответить на тему
Статистика раздачи
Размер: 2.83 ГБ | Добавлен: 24 фев 2014, 15:19 | Скачали: 60
Сидеров: 29  [0 байт/сек]    Личеров: 14  [0 байт/сек]
Пред. тема | След. тема 

Автор
Сообщение

СообщениеДобавлено: 24 фев 2014, 15:19 

Название: Первопроходец
Оригинальное название: Pioneer
Год выхода: 2013
Жанр: Триллер
Режиссер: Эрик Шёлдбьерг

В ролях: Уэс Бентли, Стивен Лэнг, Аксель Хенни, Джонатан ЛаПалья, Стефани Сигман, Ёрген Лангхелле, Эни Даль Торп, Андре Эриксен, Эндре Хеллествейт, Арни Линдтнер Нэсс

О фильме:
Профессиональный дайвер Петтер, одержимый идеей достижения дна Норвежского моря, — полон решимости, силы и мужества, чтобы браться за самую опасную в мире работу и спуститься на эту глубину. Но неожиданная случайность меняет все. И теперь Петтер отправляется в опасное путешествие, в котором он теряет из вида того, кто дергает за ниточки в этой многомиллионной игре, постепенно понимая, что он оказывается на его пути и что его жизнь находится под угрозой.



Страна: Норвегия, Германия, Швеция, Франция, Финляндия / Film i Väst, Friland A/S, Garagefilm International, Les Films d'Antoine, MRP Matila Röhr Productions Oy, Pandora Filmproduktion GmbH
Продолжительность: 01:51:14
Перевод: Любительский одноголосый (datynet)


Качество: BDRip-AVC [ Pioneer.2013.BluRay.1080p.AVC.DTS-HD.MA.7.1-PPKORE]
Видео: MPEG-4 AVC, 2750 Кбит/с, 1024x428, 24.000 кадр/с
Звук: Русский, норвежский (AC3, 6 ch, 448 Кбит/с)
Субтитры: Английские

Семпл
Format : Matroska
Format version : Version 4 / Version 2
File size : 2.83 GiB
Duration : 1h 51mn
Overall bit rate : 3 638 Kbps
Movie name : -=MediaClub - Odessit=-
Encoded date : UTC 2014-02-24 10:48:20
Writing application : mkvmerge v6.7.0 ('Back to the Ground') 32bit built on Jan 8 2014 15:03:17
Writing library : libebml v1.3.0 + libmatroska v1.4.1

Video
ID : 1
Format : AVC
Format/Info : Advanced Video Codec
Format profile : High@L4.1
Format settings, CABAC : Yes
Format settings, ReFrames : 10 frames
Codec ID : V_MPEG4/ISO/AVC
Duration : 1h 51mn
Bit rate : 2 750 Kbps
Width : 1 024 pixels
Height : 428 pixels
Display aspect ratio : 2.40:1
Frame rate : 24.000 fps
Color space : YUV
Chroma subsampling : 4:2:0
Bit depth : 8 bits
Scan type : Progressive
Bits/(Pixel*Frame) : 0.261
Stream size : 2.07 GiB (73%)
Writing library : x264 core 142 r2389kMod 956c8d8
Encoding settings : cabac=1 / ref=10 / deblock=1:-3:-3 / analyse=0x3:0x113 / me=umh / subme=11 / psy=1 / fade_compensate=0.00 / psy_rd=1.10:0.00 / mixed_ref=1 / me_range=48 / chroma_me=1 / trellis=2 / 8x8dct=1 / cqm=0 / deadzone=21,11 / fast_pskip=0 / chroma_qp_offset=-2 / threads=6 / lookahead_threads=1 / sliced_threads=0 / nr=0 / decimate=0 / interlaced=0 / bluray_compat=0 / constrained_intra=0 / fgo=0 / bframes=10 / b_pyramid=2 / b_adapt=2 / b_bias=0 / direct=3 / weightb=1 / open_gop=0 / weightp=2 / keyint=240 / keyint_min=24 / scenecut=40 / intra_refresh=0 / rc=2pass / mbtree=0 / bitrate=2750 / ratetol=1.0 / qcomp=0.60 / qpmin=0 / qpmax=69 / qpstep=4 / cplxblur=20.0 / qblur=0.5 / ip_ratio=1.40 / pb_ratio=1.30 / aq=1:0.80
Language : English

Audio #1
ID : 2
Format : AC-3
Format/Info : Audio Coding 3
Mode extension : CM (complete main)
Codec ID : A_AC3
Duration : 1h 51mn
Bit rate mode : Constant
Bit rate : 448 Kbps
Channel(s) : 6 channels
Channel positions : Front: L C R, Side: L R, LFE
Sampling rate : 48.0 KHz
Bit depth : 16 bits
Compression mode : Lossy
Stream size : 356 MiB (12%)
Title : Любительское (одноголосое) [datynet]
Language : Russian

Audio #2
ID : 3
Format : AC-3
Format/Info : Audio Coding 3
Mode extension : CM (complete main)
Codec ID : A_AC3
Duration : 1h 51mn
Bit rate mode : Constant
Bit rate : 448 Kbps
Channel(s) : 6 channels
Channel positions : Front: L C R, Side: L R, LFE
Sampling rate : 48.0 KHz
Bit depth : 16 bits
Compression mode : Lossy
Stream size : 356 MiB (12%)
Language : Norwegian

Text
ID : 4
Format : UTF-8
Codec ID : S_TEXT/UTF8
Codec ID/Info : UTF-8 Plain Text
Language : English

Menu
00:00:00.000 : en:00:00:00.000
00:08:49.750 : en:00:08:49.750
00:20:23.583 : en:00:20:23.583
00:28:24.042 : en:00:28:24.042
00:38:57.833 : en:00:38:57.833
00:49:50.333 : en:00:49:50.333
01:02:21.458 : en:01:02:21.458
01:10:53.083 : en:01:10:53.083
01:18:03.125 : en:01:18:03.125
01:28:41.250 : en:01:28:41.250
01:38:23.000 : en:01:38:23.000
01:44:53.125 : en:01:44:53.125

x264 [info]: frame I:1066 Avg QP:15.03 size: 65576
x264 [info]: frame P:32954 Avg QP:17.91 size: 26884
x264 [info]: frame B:126156 Avg QP:19.56 size: 10545
x264 [info]: consecutive B-frames: 1.5% 2.0% 8.5% 14.0% 18.7% 42.1% 6.2% 2.4% 1.6% 1.6% 1.6%
x264 [info]: mb I I16..4: 6.0% 82.1% 11.9%
x264 [info]: mb P I16..4: 0.2% 8.9% 0.7% P16..4: 27.3% 40.8% 15.3% 0.0% 0.0% skip: 6.7%
x264 [info]: mb B I16..4: 0.0% 0.4% 0.1% B16..8: 43.1% 21.7% 4.4% direct: 7.6% skip:22.7% L0:45.3% L1:48.4% BI: 6.2%
x264 [info]: 8x8 transform intra:87.6% inter:53.6%
x264 [info]: direct mvs spatial:95.8% temporal:4.2%
x264 [info]: coded y,uvDC,uvAC intra: 97.3% 72.9% 43.8% inter: 43.9% 19.1% 4.0%
x264 [info]: i16 v,h,dc,p: 34% 18% 13% 36%
x264 [info]: i8 v,h,dc,ddl,ddr,vr,hd,vl,hu: 6% 6% 7% 11% 16% 14% 15% 12% 13%
x264 [info]: i4 v,h,dc,ddl,ddr,vr,hd,vl,hu: 7% 12% 5% 9% 15% 14% 14% 11% 12%
x264 [info]: i8c dc,h,v,p: 34% 28% 18% 20%
x264 [info]: Weighted P-Frames: Y:18.1% UV:10.9%
x264 [info]: ref P L0: 39.7% 8.7% 19.2% 8.5% 6.6% 5.1% 4.5% 2.5% 2.3% 2.1% 0.6% 0.1%
x264 [info]: ref B L0: 67.0% 13.9% 7.3% 3.8% 2.7% 2.3% 2.0% 0.8% 0.4%
x264 [info]: ref B L1: 90.7% 9.3%
x264 [info]: kb/s:2740.40



Релиз от: |
загрузка...
Правила, инструкции, FAQ!!!
Торрент  Добавлен [24 фев 2014, 15:19] Скачать торрент
Скачать торрент
[ Размер 14.65 КБ / Просмотров 16 ]

Статус  
 
Размер  2.83 ГБ
Приватный: Нет (DHT включён)
.torrent скачан  60
Как залить торрент? | Как скачать Torrent? | Как смотреть и слушать онлайн?  


     Отправить личное сообщение
   
Страница 1 из 1
Показать сообщения за:  Поле сортировки  
Начать новую тему Ответить на тему

   Похожие торренты   Автор   Ответы   Просмотры   Последнее сообщение 
В этой теме нет новых непрочитанных сообщений. Скачать торрент Первопроходец / Pioneer (2013) BDRip 720p | L1

в форуме 720p | 1080p, Размер: 5.15 ГБ, Здоровье: 100%

Anonymous

0
56|40

13
108

20 фев 2014, 23:16

Anonymous Перейти к последнему сообщению

В этой теме нет новых непрочитанных сообщений. Скачать торрент Первопроходец / Pioneer (2013) HDRip | L1

в форуме Триллеры, Размер: 1.36 ГБ, Здоровье: 100%

Anonymous

0
84|11

33
141

20 фев 2014, 23:12

Anonymous Перейти к последнему сообщению

В этой теме нет новых непрочитанных сообщений. Скачать торрент Проверен VA - Pioneer Studio 33,5 - Flight in... (2012) [MP3 Pro|256 kbps]<Italo Disco>

в форуме Зарубежная музыка, Размер: 258.48 МБ, Здоровье: 100%

Anonymous

0
1|1

18
0

18 окт 2014, 17:03

Anonymous Перейти к последнему сообщению

В этой теме нет новых непрочитанных сообщений. Скачать торрент Проверен АукцЫон/Auktyon - Пионер/Pioneer (2006) [WavPack|Lossless]<Rock>

в форуме Русский рок, Размер: 357.3 МБ, Здоровье: 16%

Anonymous

0
1|6

35
0

29 июн 2014, 00:22

Anonymous Перейти к последнему сообщению

В этой теме нет новых непрочитанных сообщений. Скачать торрент Проверен (Progressive Rock) Yes 1987-Big Generator [Warner-Pioneer Corporation, 32XD-559], FLAC (image+.cue), lossless

в форуме Progressive & Art-Rock, Размер: 275.58 МБ, Здоровье: 0%

Anonymous

0
0|0

3
0

30 авг 2016, 22:56

Anonymous Перейти к последнему сообщению



Сейчас этот форум просматривают: нет зарегистрированных пользователей и гости: 2


Вы не можете начинать темы
Вы не можете отвечать на сообщения
Вы не можете редактировать свои сообщения
Вы не можете удалять свои сообщения
Вы не можете добавлять вложения

Перейти:  

!ВНИМАНИЕ!
 Ресурс не предоставляет электронные версии произведений, а занимается лишь коллекционированием и каталогизацией ссылок, присылаемых и публикуемых на форуме нашими читателями. Если вы являетесь правообладателем какого-либо представленного материала и не желаете чтобы ссылка на него находилась в нашем каталоге, свяжитесь с нами и мы незамедлительно удалим её. Файлы для обмена на трекере предоставлены пользователями сайта, и администрация не несёт ответственности за их содержание. Просьба не заливать файлы, защищенные авторскими правами, а также файлы нелегального содержания!